<?xml version="1.0" standalone="no"?>
<!DOCTYPE svg PUBLIC "-//W3C//DTD SVG 1.1//EN" "http://www.w3.org/Graphics/SVG/1.1/DTD/svg11.dtd" >
<svg xmlns="http://www.w3.org/2000/svg">
  <metadata>Created by iconfont</metadata>
  <defs>
  <font id="iconfont" horiz-adv-x="1024">
    <font-face
      font-family="iconfont"
      font-weight="400"
      font-stretch="normal"
      units-per-em="1024"
      ascent="896"
      descent="-128"
    />
      <missing-glyph />
      
      <glyph glyph-name="esports_filled_24x24" unicode="&#58912;" d="M230.4 712.533333a46.933333 46.933333 0 0 0 46.933333 46.933334h469.333334a46.933333 46.933333 0 0 0 46.933333-46.933334v-11.733333c0-6.485333 5.248-11.733333 11.733333-11.733333h105.642667c38.826667 0 70.4-31.488 70.4-70.4v-70.4a234.752 234.752 0 0 0-234.666667-234.666667 11.818667 11.818667 0 0 1-9.472-4.778667 281.685333 281.685333 0 0 0-168.533333-106.88 12.074667 12.074667 0 0 1-9.770667-11.733333v-76.117333c0-6.442667 5.248-11.690667 11.733334-11.690667h152.533333a46.933333 46.933333 0 1 0 0-93.866667h-422.4a46.933333 46.933333 0 0 0 0 93.866667h152.533333a11.733333 11.733333 0 0 1 11.733334 11.690667v76.117333a12.074667 12.074667 0 0 1-9.770667 11.733333 281.642667 281.642667 0 0 0-168.533333 106.88 11.776 11.776 0 0 1-9.429334 4.778667A234.752 234.752 0 0 0 42.666667 548.266667V618.666667c0 38.912 31.488 70.4 70.4 70.4h105.6a11.733333 11.733333 0 0 1 11.733333 11.733333V712.533333z m574.933333-117.333333a11.733333 11.733333 0 0 1-11.733333-11.733333v-151.381334c0-8.106667 8.021333-13.738667 15.274667-10.154666a140.8 140.8 0 0 1 78.634666 126.336v35.2a11.733333 11.733333 0 0 1-11.733333 11.733333H805.333333z m-657.066666 0a11.733333 11.733333 0 0 1-11.776-11.733333v-35.2a140.8 140.8 0 0 1 78.592-126.336c7.253333-3.584 15.317333 2.048 15.317333 10.154666V583.466667a11.733333 11.733333 0 0 1-11.733333 11.733333h-70.4z m369.237333-162.474667l54.101333-28.672a11.776 11.776 0 0 1 16.341334 5.930667c0.853333 2.005333 1.109333 4.266667 0.725333 6.4l-10.410667 61.056a11.776 11.776 0 0 0 3.370667 10.325333l44.074667 43.349334a11.733333 11.733333 0 0 1-6.528 19.968l-60.714667 8.917333a11.733333 11.733333 0 0 0-8.832 6.442667l-27.093333 55.338666a11.733333 11.733333 0 0 1-21.077334 0l-27.093333-55.338666a11.776 11.776 0 0 0-8.832-6.4l-60.714667-8.96a11.733333 11.733333 0 0 1-6.528-19.968l44.074667-43.349334a11.690667 11.690667 0 0 0 3.328-10.325333l-10.368-61.056a11.776 11.776 0 0 1 17.066667-12.373333l54.101333 28.714666a11.733333 11.733333 0 0 0 11.008 0z"  horiz-adv-x="1024" />
      
      <glyph glyph-name="roll_filled_24x24" unicode="&#59139;" d="M177.749333 733.312v-379.733333c0-7.125333-1.365333-14.208-4.010666-20.864l-41.728-103.893334a56.021333 56.021333 0 0 1-4.010667-20.906666v-173.226667c0-30.933333 25.088-56.021333 56.021333-56.021333h605.226667c30.933333 0 56.021333 25.088 56.021333 56.021333v173.226667c0 7.168-1.365333 14.250667-4.010666 20.906666l-41.685334 103.893334a56.064 56.064 0 0 0-4.053333 20.906666V733.269333c0 30.933333-25.088 56.021333-56.021333 56.021334H233.813333c-30.976 0-56.064-25.088-56.064-56.021334z m139.008-124.373333a37.76 37.76 0 1 0 75.52 0v-174.08a37.76 37.76 0 1 0-75.52 0v174.08z m132.138667 0a37.76 37.76 0 1 0 75.52 0v-174.122667a37.76 37.76 0 0 0-75.52 0V608.938667z m169.856 37.76c20.906667 0 37.76-16.896 37.76-37.76v-174.122667a37.76 37.76 0 0 0-75.52 0V608.938667c0 20.864 16.938667 37.76 37.76 37.76zM1024.597333 494.933333c0-39.253333-32.597333-71.082667-72.789333-71.082666-4.949333 0-9.813333 0.469333-14.506667 1.408l-69.034666-103.808a7.68 7.68 0 0 0-13.269334 0.768l-12.245333 24.106666a38.4 38.4 0 0 0 2.773333 39.424l47.232 67.626667a69.717333 69.717333 0 0 0-13.738666 41.6c0 39.253333 32.597333 71.082667 72.789333 71.082667s72.789333-31.829333 72.789333-71.082667z"  horiz-adv-x="1066" />
      
      <glyph glyph-name="bbs_inport_filled_24x24" unicode="&#59171;" d="M601.173333 187.733333l-201.173333 140.288H343.978667v-112.042666h-224v-111.957334h224v-112h56.021333l201.130667 140.288c22.869333 14.165333 22.869333 41.216 0 55.424z m290.090667 377.088l-252.586667 254.293334a43.093333 43.093333 0 0 1-30.72 12.885333H231.978667c-35.968 0-55.978667-19.712-55.978667-56.021333V384H288V720h280.021333v-168.021333c0-24.149333 32-55.978667 55.978667-55.978667h168.021333l0.768-448h-168.789333V-64h224c35.968 0 56.021333 19.712 56.021333 56.021333V533.802667c0 11.605333-4.608 22.741333-12.757333 30.933333z"  horiz-adv-x="1024" />
      
      <glyph glyph-name="bbs_header2_filled_24x24" unicode="&#59172;" d="M352 320h320v-224a64 64 0 0 1 128 0V672a64 64 0 0 1-128 0v-224h-320V672a64 64 0 1 1-128 0v-576a64 64 0 0 1 128 0V320zM919.04 256c-52.309333 0-87.04-29.866667-87.04-75.690667h58.026667c0 17.536 12.458667 28.416 29.013333 28.416 14.421333 0 25.088-9.386667 25.088-23.253333 0-12.074667-5.248-21.162667-31.274667-43.52l-77.098666-66.304v-43.648h172.245333v48.341333h-90.794667v1.194667l39.552 34.304c33.664 29.312 48.682667 44.544 48.682667 73.813333 0 39.594667-33.664 66.346667-86.4 66.346667z"  horiz-adv-x="1024" />
      
      <glyph glyph-name="bbs_header1_filled_24x24" unicode="&#59173;" d="M352 320h320v-224a64 64 0 0 1 128 0V672a64 64 0 0 1-128 0v-224h-320V672a64 64 0 1 1-128 0v-576a64 64 0 0 1 128 0V320zM888.661333 199.68v-167.68H960V256h-71.338667l-56.661333-37.546667v-55.125333l55.466667 36.309333h1.194666z"  horiz-adv-x="1024" />
      
      <glyph glyph-name="special_close2_small_line_24x24" unicode="&#58903;" d="M614.4 588.8a204.8 204.8 0 1 0 0-409.6H409.6a204.8 204.8 0 1 0 0 409.6h204.8zM409.6 640a256 256 0 1 1 0-512h204.8a256 256 0 0 1 0 512H409.6zM540.970667 384l67.413333 67.413333a20.48 20.48 0 1 1-28.928 29.013334L512 412.928l-67.413333 67.413333a20.48 20.48 0 1 1-29.013334-28.928L483.072 384l-67.413333-67.413333a20.48 20.48 0 1 1 28.928-29.013334L512 355.072l67.413333-67.413333a20.48 20.48 0 1 1 29.013334 28.928L540.928 384z"  horiz-adv-x="1024" />
      
      <glyph glyph-name="bbs_game_filled_24x24" unicode="&#59147;" d="M292.48 767.658667c-22.101333 1.109333-44.629333-0.128-65.322667-8.362667-47.658667-19.029333-102.4-64.426667-141.141333-149.034667C-18.048 383.061333-54.784 0 132.778667 0c62.890667 0 108.032 57.258667 156.842666 119.125333C347.008 192 409.514667 209.493333 512 209.493333c102.485333 0 164.992-17.493333 222.378667-90.325333C783.189333 57.258667 828.330667 0 891.221333 0c187.605333 0 150.826667 383.061333 46.762667 610.261333-38.741333 84.650667-93.482667 130.005333-141.141333 149.034667-20.693333 8.234667-43.221333 9.472-65.28 8.362667-75.264-3.84-110.464-20.522667-140.245334-34.645334-23.978667-11.349333-44.373333-21.077333-79.317333-21.077333-34.901333 0-55.338667 9.728-79.317333 21.077333-29.781333 14.08-65.024 30.805333-140.202667 34.645334z m19.328-146.090667c11.648 0 21.077333-10.154667 21.077333-22.613333v-67.84h63.232c11.648 0 21.077333-10.112 21.077334-22.613334v-22.570666c0-12.458667-9.429333-22.613333-21.077334-22.613334H332.885333v-67.797333c0-12.458667-9.429333-22.613333-21.077333-22.613333h-21.077333c-11.648 0-21.077333 10.154667-21.077334 22.613333v67.84H206.506667c-11.648 0-21.077333 10.112-21.077334 22.613333v22.570667c0 12.458667 9.429333 22.613333 21.077334 22.613333h63.146666V598.912c0 12.458667 9.429333 22.613333 21.077334 22.613333h21.077333z m397.994667-225.92a93.098667 93.098667 0 1 0 0 186.197333 93.098667 93.098667 0 0 0 0-186.197333z"  horiz-adv-x="1024" />
      
      <glyph glyph-name="bbs_pic_filled_24x24" unicode="&#59152;" d="M42.666667 725.333333a42.666667 42.666667 0 0 0 42.666666 42.666667h853.333334a42.666667 42.666667 0 0 0 42.666666-42.666667v-682.666666a42.666667 42.666667 0 0 0-42.666666-42.666667H85.333333a42.666667 42.666667 0 0 0-42.666666 42.666667V725.333333z m336.213333-170.666666l-209.749333-403.285334c-5.546667-10.666667 2.133333-23.381333 14.165333-23.381333h657.408a16 16 0 0 1 14.165333 23.381333L733.909333 384l-110.933333-170.666667-244.138667 341.333334zM725.333333 473.088c35.328 0 64 27.818667 64 62.122667C789.333333 569.514667 760.661333 597.333333 725.333333 597.333333s-64-27.818667-64-62.122666c0-34.304 28.672-62.122667 64-62.122667z"  horiz-adv-x="1024" />
      
      <glyph glyph-name="bbs_artical_filled_24x24" unicode="&#59150;" d="M192-85.333333h640a64 64 0 0 1 64 64V613.504a64 64 0 0 1-18.773333 45.226667l-175.786667 175.872A64 64 0 0 1 656.128 853.333333H192A64 64 0 0 1 128 789.333333v-810.666666A64 64 0 0 1 192-85.333333zM256 256a42.666667 42.666667 0 0 0 42.666667 42.666667h426.666666a42.666667 42.666667 0 1 0 0-85.333334H298.666667a42.666667 42.666667 0 0 0-42.666667 42.666667z m42.666667-128h266.666666a42.666667 42.666667 0 1 0 0-85.333333H298.666667a42.666667 42.666667 0 1 0 0 85.333333z m-42.666667 298.666667a42.666667 42.666667 0 0 0 42.666667 42.666666h426.666666a42.666667 42.666667 0 1 0 0-85.333333H298.666667a42.666667 42.666667 0 0 0-42.666667 42.666667z m32 298.666666h234.666667a32 32 0 0 0 32-32v-106.666666a32 32 0 0 0-32-32h-234.666667A32 32 0 0 0 256 586.666667v106.666666A32 32 0 0 0 288 725.333333z"  horiz-adv-x="1024" />
      
      <glyph glyph-name="bbs_article_line_24x24" unicode="&#59164;" d="M689.408 778.666667H213.333333a42.666667 42.666667 0 0 1-42.666666-42.666667v-704a42.666667 42.666667 0 0 1 42.666666-42.666667h597.333334a42.666667 42.666667 0 0 1 42.666666 42.666667V615.253333l-163.925333 163.413334zM213.333333 864h476.074667a85.333333 85.333333 0 0 0 60.245333-24.917333l163.925334-163.413334A85.333333 85.333333 0 0 0 938.666667 615.168V32a128 128 0 0 0-128-128H213.333333a128 128 0 0 0-128 128V736a128 128 0 0 0 128 128z m67.072-345.941333a42.666667 42.666667 0 0 0 42.666667 42.666666h243.456a42.666667 42.666667 0 1 0 0-85.333333H323.072a42.666667 42.666667 0 0 0-42.666667 42.666667z m42.666667-203.52a42.666667 42.666667 0 0 1 0-85.333334h368.981333a42.666667 42.666667 0 1 1 0 85.333334H323.072z"  horiz-adv-x="1024" />
      
      <glyph glyph-name="bbs_bold_filled_24x24" unicode="&#59165;" d="M263.68-42.666667a77.312 77.312 0 0 0-77.013333 77.568V733.098667C186.666667 775.936 221.141333 810.666667 263.722667 810.666667h296.789333c69.12 0 115.328-17.621333 146.133333-34.901334 30.848-17.28 96.298667-81.493333 96.298667-178.432 0-85.333333-19.2-144.597333-86.954667-188.288 109.354667-35.712 164.010667-105.173333 164.010667-208.384 0-117.333333-91.733333-195.413333-132.224-213.632-25.344-10.88-54.485333-18.56-87.381333-23.04-32.938667-4.437333-71.338667-6.656-115.2-6.656H263.68z m77.056 387.84v-252.074666h178.346667c112.213333 0 196.906667 28.885333 196.906666 107.52 0 66.986667-38.016 99.285333-67.114666 117.418666-29.056 18.133333-77.568 27.178667-135.338667 27.178667h-172.8z m0 116.394667h149.418667c40.661333 0 72.064 4.266667 94.208 12.885333 22.144 8.618667 83.797333 45.312 83.797333 106.88 0 54.784-33.706667 75.605333-62.677333 90.538667-28.928 14.933333-73.045333 22.442667-132.352 22.442667H340.736v-232.746667z"  horiz-adv-x="1024" />
      
      <glyph glyph-name="bbs_dislike_filled_24x24" unicode="&#59166;" d="M367.957333 740.224l94.208-238.848-99.2-106.794667 198.4-266.666666-99.2 266.666666 198.4 106.794667-74.368 192.597333c158.72 153.856 421.589333 63.317333 421.589334-228.949333C1007.786667 267.733333 511.786667-85.333333 511.786667-85.333333S15.786667 266.624 15.786667 469.162667c0 245.461333 198.4 341.205333 352.170666 271.061333z"  horiz-adv-x="1024" />
      
      <glyph glyph-name="bbs_at_filled_24x24" unicode="&#59167;" d="M505.514667 478.464c-43.776 0-69.76-34.730667-69.76-98.133333 0-63.104 26.069333-98.218667 69.248-98.218667 44.544 0 72.277333 35.925333 72.277333 98.176 0 62.165333-27.733333 98.176-71.765333 98.176z m81.237333 72.789333c0 32.426667 26.24 58.624 58.624 58.624h6.314667c35.84 0 64.938667-29.056 64.938666-64.938666v-232.874667c0-27.562667 11.52-40.832 33.365334-40.832 39.808 0 68.266667 56.021333 68.266666 149.12 0 170.496-117.76 281.130667-299.776 281.130667-184.917333 0-312.746667-130.816-312.746666-320.213334 0-192.426667 127.402667-312.746667 331.690666-312.746666 28.842667 0 57.856 1.92 82.389334 5.162666 2.773333 0.384 6.101333 0.981333 9.728 1.706667 29.354667 6.101333 58.154667-14.762667 58.154666-44.714667 0-30.549333-20.608-57.6-50.474666-63.872-6.4-1.322667-12.330667-2.474667-16.896-3.157333A631.466667 631.466667 0 0 0 529.92-42.666667C262.4-42.666667 85.333333 127.146667 85.333333 383.744 85.333333 636.032 263.978667 810.666667 521.472 810.666667 768.213333 810.666667 938.666667 655.146667 938.666667 428.757333c0-164.608-80.938667-270.165333-210.645334-270.165333-58.325333 0-104.490667 24.362667-124.714666 65.408-25.386667-41.984-67.498667-63.957333-122.752-63.957333-112.512 0-187.178667 90.197333-187.178667 223.232 0 127.573333 73.685333 216.277333 182.186667 216.277333 45.824 0 85.333333-17.450667 111.189333-48.298667z"  horiz-adv-x="1024" />
      
      <glyph glyph-name="bbs_battery_filled_24x24" unicode="&#59168;" d="M832 678.826667c35.328 0 64-29.312 64-65.493334v-622.506666c0-36.138667-28.672-65.493333-64-65.493334h-640c-35.328 0-64 29.354667-64 65.536V613.333333c0 36.181333 28.672 65.536 64 65.536h640z m-316.16-155.733334l-191.829333-250.197333a24.021333 24.021333 0 0 1-1.92-22.912c3.84-6.272 9.6-10.453333 17.28-10.453333h151.509333l-17.237333-143.829334c-1.92-8.362667 3.84-18.773333 11.52-20.864 1.92-2.090667 5.717333-2.090667 7.68-2.090666 5.717333 0 11.52 2.133333 15.36 8.362666l191.786666 250.197334c3.84 6.229333 5.76 14.549333 1.92 20.821333-3.84 8.362667-9.6 12.501333-17.28 12.501333h-151.509333l17.237333 143.872c1.92 8.32-3.84 18.773333-11.52 20.864-7.68 4.138667-17.237333 2.048-22.997333-6.272z m156.16 319.573334c35.328 0 64-29.354667 64-65.536v-32.768H288v32.768c0 36.181333 28.672 65.536 64 65.536h320z"  horiz-adv-x="1024" />
      
      <glyph glyph-name="bbs_comment_filled_24x24" unicode="&#59169;" d="M97.877333 768C67.413333 768 42.666667 742.826667 42.666667 711.765333v-536.064c0-31.061333 24.746667-56.234667 55.210666-56.234666H210.346667V-85.333333L512 119.466667h414.122667c30.506667 0 55.210667 25.173333 55.210666 56.234666V711.765333C981.333333 742.826667 956.586667 768 926.122667 768H97.877333z"  horiz-adv-x="1024" />
      
      <glyph glyph-name="backward_filled_24x24" unicode="&#59170;" d="M946.432 45.354667c0 182.058667-151.381333 484.437333-395.050667 484.437333V688.213333c0 18.645333-16.64 33.706667-37.162666 33.706667a39.509333 39.509333 0 0 1-24.192-8.106667l-391.68-304.341333a31.573333 31.573333 0 0 1-4.053334-47.488 36.266667 36.266667 0 0 1 5.674667-4.864l391.68-270.506667c16.341333-11.306667 39.68-8.448 52.138667 6.4a31.658667 31.658667 0 0 1 7.594666 20.394667v184.704c200.789333-7.04 395.050667-167.808 395.050667-252.757333z"  horiz-adv-x="1024" />
      
      <glyph glyph-name="common_arrow_down_line_24x24" unicode="&#59148;" d="M89.216 580.608a53.333333 53.333333 0 0 0 75.392 2.133333L512 254.72l347.392 328.106667a53.333333 53.333333 0 0 0 73.216-77.568l-384-362.666667a53.333333 53.333333 0 0 0-73.216 0l-384 362.666667a53.333333 53.333333 0 0 0-2.133333 75.392z"  horiz-adv-x="1024" />
      
      <glyph glyph-name="bbs_vote_filled_24x24" unicode="&#59149;" d="M42.666667 789.333333a42.666667 42.666667 0 0 0 42.666666 42.666667h597.333334a42.666667 42.666667 0 0 0 42.666666-42.666667v-128a42.666667 42.666667 0 0 0-42.666666-42.666666H85.333333a42.666667 42.666667 0 0 0-42.666666 42.666666v128z m0-341.333333a42.666667 42.666667 0 0 0 42.666666 42.666667h853.333334a42.666667 42.666667 0 0 0 42.666666-42.666667v-128a42.666667 42.666667 0 0 0-42.666666-42.666667H85.333333a42.666667 42.666667 0 0 0-42.666666 42.666667v128z m42.666666-298.666667a42.666667 42.666667 0 0 1-42.666666-42.666666v-128a42.666667 42.666667 0 0 1 42.666666-42.666667h384a42.666667 42.666667 0 0 1 42.666667 42.666667v128a42.666667 42.666667 0 0 1-42.666667 42.666666H85.333333z"  horiz-adv-x="1024" />
      
      <glyph glyph-name="bbs_thumbs-up_filled_24x24" unicode="&#59151;" d="M617.344 572.842667l194.005333-6.826667c32.853333-1.152 64.896-10.197333 93.44-26.368l28.032-15.829333a95.573333 95.573333 0 0 0 43.989334-112.213334c-4.437333-13.952-8.192-27.562667-11.306667-40.789333-1.365333-5.973333-2.090667-12.074667-2.090667-18.176l-0.938666-49.493333a244.693333 244.693333 0 0 0-16.64-84.138667l-19.968-51.242667a80.213333 80.213333 0 0 1-4.693334-16.768l-10.666666-63.146666a285.44 285.44 0 0 0-22.272-72.192l-5.461334-11.861334c-13.056-28.330667-41.429333-46.464-69.461333-46.464h-336c-61.056 0-103.808 11.306667-139.946667 27.989334V572.842667C369.237333 597.333333 400.426667 623.701333 411.989333 645.205333c44.416 82.133333 0 161.834667 81.706667 202.282667 37.546667 18.602667 164.437333 8.618667 123.605333-274.645333z m-336 0.469333v-587.946667l-164.053333-23.466666a27.989333 27.989333 0 0 0-31.957334 27.733333V545.28c0 15.488 12.544 27.989333 27.989334 27.989333h168.021333z"  horiz-adv-x="1024" />
      
      <glyph glyph-name="bbs_tag_filled_24x24" unicode="&#59153;" d="M969.386667 764.885333l11.904-296.96a79.786667 79.786667 0 0 0-23.338667-59.605333L487.68-61.952a79.786667 79.786667 0 0 0-112.810667 0l-308.821333 308.821333a79.786667 79.786667 0 0 0 0 112.810667L536.32 829.952a79.786667 79.786667 0 0 0 59.605333 23.296l296.96-11.861333a79.786667 79.786667 0 0 0 76.501334-76.501334zM771.84 643.84a68.821333 68.821333 0 1 1-97.28-97.28 68.821333 68.821333 0 0 1 97.28 97.28z"  horiz-adv-x="1024" />
      
      <glyph glyph-name="bbs_locked_filled_24x24" unicode="&#59154;" d="M512 725.333333a149.333333 149.333333 0 0 1-149.333333-149.333333v-42.666667h298.666666v42.666667A149.333333 149.333333 0 0 1 512 725.333333zM209.450667 533.333333h67.84v42.666667a234.666667 234.666667 0 1 0 469.333333 0v-42.666667h67.925333a38.826667 38.826667 0 0 0 38.784-38.826666v-498.346667a38.826667 38.826667 0 0 0-38.826666-38.826667H209.493333a38.826667 38.826667 0 0 0-38.826666 38.826667V494.506667a38.826667 38.826667 0 0 0 38.826666 38.826666z m387.84-234.666666a85.333333 85.333333 0 1 1-128-73.898667V128a42.666667 42.666667 0 1 1 85.333333 0v96.768A85.333333 85.333333 0 0 1 597.333333 298.666667z"  horiz-adv-x="1024" />
      
      <glyph glyph-name="bbs_comment_line_24x24" unicode="&#59155;" d="M878.933333 230.4V665.6H145.066667v-435.2h170.666666v-116.736l163.413334 116.736h399.786666zM896 128h-384l-231.210667-165.12A42.666667 42.666667 0 0 0 213.333333-2.474667V128H128a85.333333 85.333333 0 0 0-85.333333 85.333333V682.666667a85.333333 85.333333 0 0 0 85.333333 85.333333h768a85.333333 85.333333 0 0 0 85.333333-85.333333v-469.333334a85.333333 85.333333 0 0 0-85.333333-85.333333zM298.666667 384a64 64 0 1 1 0 128 64 64 0 0 1 0-128z m213.333333 0a64 64 0 1 1 0 128 64 64 0 0 1 0-128z m277.333333 64a64 64 0 1 0-128 0 64 64 0 0 0 128 0z"  horiz-adv-x="1024" />
      
      <glyph glyph-name="bbs_italic_filled_24x24" unicode="&#59156;" d="M356.266667 764.8c0 37.12 30.08 67.2 67.2 67.2h268.8a67.2 67.2 0 0 0 0-134.4H625.066667l-89.6-627.2h67.2a67.2 67.2 0 0 0 0-134.4h-268.8a67.2 67.2 0 0 0 0 134.4H401.066667l89.6 627.2H423.466667c-37.12 0-67.2 30.08-67.2 67.2z"  horiz-adv-x="1024" />
      
      <glyph glyph-name="bbs_more_filled_24x24" unicode="&#59157;" d="M512-42.666667c235.648 0 426.666667 191.018667 426.666667 426.666667S747.648 810.666667 512 810.666667 85.333333 619.648 85.333333 384s191.018667-426.666667 426.666667-426.666667z m0 682.666667a42.666667 42.666667 0 0 0 42.666667-42.666667v-170.666666h170.666666a42.666667 42.666667 0 1 0 0-85.333334h-170.666666v-170.666666a42.666667 42.666667 0 1 0-85.333334 0v170.666666H298.666667a42.666667 42.666667 0 1 0 0 85.333334h170.666666V597.333333a42.666667 42.666667 0 0 0 42.666667 42.666667z"  horiz-adv-x="1024" />
      
      <glyph glyph-name="bbs_pic_artical_filled_24x24" unicode="&#59158;" d="M128 789.333333A64 64 0 0 0 192 853.333333h640A64 64 0 0 0 896 789.333333v-810.666666a64 64 0 0 0-64-64h-640A64 64 0 0 0 128-21.333333v810.666666zM256 170.666667a42.666667 42.666667 0 0 1 42.666667-42.666667h426.666666a42.666667 42.666667 0 1 1 0 85.333333H298.666667a42.666667 42.666667 0 0 1-42.666667-42.666666zM384 640a64 64 0 1 1-128 0 64 64 0 0 1 128 0z m296.832-65.834667a42.666667 42.666667 0 0 1-60.330667 0L512 465.664l-55.168 55.168a42.666667 42.666667 0 0 1-59.008 1.28l-128-117.333333A42.666667 42.666667 0 0 1 256 373.333333v-10.666666a42.666667 42.666667 0 0 1 42.666667-42.666667h426.666666a42.666667 42.666667 0 0 1 42.666667 42.666667V469.333333a42.666667 42.666667 0 0 1-12.501333 30.165334l-74.666667 74.666666z"  horiz-adv-x="1024" />
      
      <glyph glyph-name="bbs_goods_filled_24x24" unicode="&#59159;" d="M512 853.333333c119.253333 0 216.149333-96.085333 221.738667-216.234666l0.256-11.008v-26.112a39.168 39.168 0 0 0-77.994667-5.290667l-0.341333 5.290667v26.112c0 82.474667-64.554667 148.906667-143.658667 148.906666-76.16 0-138.837333-61.610667-143.36-139.776l-0.298667-9.130666v-26.112a39.168 39.168 0 0 0-77.994666-5.290667l-0.341334 5.290667v26.112C290.005333 751.36 389.12 853.333333 512 853.333333zM31.232 450.218667a64 64 0 0 0 62.72 76.629333h836.096a64 64 0 0 0 62.72-76.629333L901.12-3.968a42.666667 42.666667 0 0 0-41.813333-34.261333H164.693333a42.666667 42.666667 0 0 0-41.813333 34.261333L31.232 450.133333z m337.109333-236.8a39.168 39.168 0 0 1 0-78.336h287.317334a39.168 39.168 0 0 1 0 78.378666H368.341333z"  horiz-adv-x="1024" />
      
      <glyph glyph-name="bbs_draft_line_24x24" unicode="&#59160;" d="M224 704A96 96 0 0 0 320 800h384a96 96 0 0 0 96-96V384H853.333333a85.333333 85.333333 0 0 0 85.333334-85.333333v-256a85.333333 85.333333 0 0 0-85.333334-85.333334H170.666667a85.333333 85.333333 0 0 0-85.333334 85.333334v256a85.333333 85.333333 0 0 0 85.333334 85.333333h53.333333V704zM800 213.333333v-32H224V298.666667H170.666667v-256h682.666666v256h-53.333333v-85.333334zM320 736a32 32 0 0 1-32-32v-458.666667h448V704a32 32 0 0 1-32 32h-384zM384 576a42.666667 42.666667 0 0 0 42.666667 42.666667h170.666666a42.666667 42.666667 0 1 0 0-85.333334h-170.666666a42.666667 42.666667 0 0 0-42.666667 42.666667z m0-170.666667a42.666667 42.666667 0 0 0 42.666667 42.666667h170.666666a42.666667 42.666667 0 1 0 0-85.333333h-170.666666a42.666667 42.666667 0 0 0-42.666667 42.666666z"  horiz-adv-x="1024" />
      
      <glyph glyph-name="bbs_fire_24x24" unicode="&#59161;" d="M613.802667 457.216c57.173333 11.306667 78.336 104.96 71.68 161.92 194.133333-132.522667 228.053333-491.605333 58.624-617.642667-118.741333-88.32-250.069333-101.162667-336.810667-74.410666-154.282667 47.658667-282.197333 205.354667-221.013333 419.413333C244.864 551.381333 457.898667 584.32 422.314667 853.333333c137.728 0 208.554667-198.997333 191.488-396.117333z"  horiz-adv-x="1024" />
      
      <glyph glyph-name="bbs_content_filled_24x24" unicode="&#59162;" d="M141.866667 92.501333a25.088 25.088 0 0 0-23.850667-17.28 75.306667 75.306667 0 0 0-71.296 99.456L218.026667 679.424a82.688 82.688 0 0 0 156.586666 0l167.594667-493.866667a83.456 83.456 0 0 0-79.061333-110.293333 13.909333 13.909333 0 0 0-13.226667 9.6l-51.328 158.421333H191.146667l-49.237334-150.741333z m81.536 260.352h142.933333L295.04 574.208 223.402667 352.853333z m523.690666-277.632c-92.885333 0-158.890667 59.477333-158.890666 147.712 0 88.192 63.872 140.288 174.933333 147.328l105.685333 6.272v25.898667c0 39.765333-24.661333 60.501333-76.032 60.501333-16.469333 0-30.72-2.218667-42.410666-6.4-8.618667-3.072-17.493333-12.458667-24.533334-21.76-9.685333-12.672-24.106667-21.632-40.106666-21.632-42.069333 0-75.477333 40.533333-56.32 77.994667 2.602667 5.034667 5.248 9.386667 7.978666 12.544 33.578667 39.765333 90.24 62.933333 159.402667 62.933333C912.554667 566.613333 981.333333 505.6 981.333333 402.432v-284.586667a42.666667 42.666667 0 0 0-42.666666-42.666666h-24.405334a42.666667 42.666667 0 0 0-42.666666 42.666666v9.472c-29.952-33.493333-73.941333-52.096-124.501334-52.096z m29.354667 202.922667c-53.418667-3.626667-74.88-19.669333-74.88-51.072 0-30.634667 25.770667-50.218667 67.584-50.218667 57.685333 0 99.669333 36.565333 99.669333 84.394667v22.954667l-92.373333-6.058667z"  horiz-adv-x="1024" />
      
      <glyph glyph-name="bbs_battery_line_24x24" unicode="&#59163;" d="M832 678.826667c35.328 0 64-29.312 64-65.493334v-622.506666c0-36.138667-28.672-65.493333-64-65.493334h-640c-35.328 0-64 29.354667-64 65.536V613.333333c0 36.181333 28.672 65.536 64 65.536h640zM810.666667 593.578667H213.333333V10.666667h597.333334V593.536zM515.84 523.093333c5.76 8.32 15.36 10.410667 23.04 6.272 7.68-2.133333 13.397333-12.544 11.52-20.906666l-17.28-143.786667h151.509333c7.68 0 13.44-4.181333 17.28-12.544 3.84-6.272 1.92-14.592-1.92-20.864l-191.829333-250.154667a17.024 17.024 0 0 0-15.36-8.362666c-1.92 0-5.717333 0-7.68 2.133333-7.68 2.048-13.397333 12.458667-11.52 20.821333l17.28 143.872H339.370667c-7.68 0-13.44 4.138667-17.28 10.410667a24.021333 24.021333 0 0 0 1.92 22.912L515.84 523.093333z m156.16 319.573334c35.328 0 64-29.354667 64-65.536v-32.768H288v32.768c0 36.181333 28.672 65.536 64 65.536h320z"  horiz-adv-x="1024" />
      
      <glyph glyph-name="bbs_thumbs-down_filled_24x24" unicode="&#59136;" d="M406.656 195.157333l-194.005333 6.826667a204.288 204.288 0 0 0-93.44 26.368l-28.032 15.829333a95.573333 95.573333 0 0 0-43.989334 112.213334c4.437333 13.952 8.192 27.562667 11.306667 40.789333a80.213333 80.213333 0 0 1 2.090667 18.176l0.938666 49.493333a244.650667 244.650667 0 0 0 16.64 84.138667L98.133333 600.234667c2.176 5.418667 3.754667 11.008 4.693334 16.768l10.666666 63.146666a285.482667 285.482667 0 0 0 22.272 72.192l5.461334 11.861334C154.282667 792.533333 182.656 810.666667 210.645333 810.666667h336c61.141333 0 103.850667-11.306667 140.032-27.989334v-587.52c-32-24.490667-63.146667-50.858667-74.752-72.362666-44.373333-82.133333 0-161.834667-81.664-202.282667-37.546667-18.602667-164.437333-8.618667-123.605333 274.645333z m336-0.512V782.72l164.053333 23.424a27.989333 27.989333 0 0 0 31.957334-27.733333V222.72a27.989333 27.989333 0 0 0-27.989334-27.989333h-168.021333z"  horiz-adv-x="1024" />
      
      <glyph glyph-name="common_arrow_down_round_line_24x24" unicode="&#59137;" d="M512 853.333333a468.010667 468.010667 0 0 1-331.861333-137.472A468.010667 468.010667 0 0 1 42.666667 384c0-129.578667 52.565333-246.997333 137.472-331.861333A468.010667 468.010667 0 0 1 512-85.333333c129.578667 0 246.997333 52.565333 331.861333 137.472A468.010667 468.010667 0 0 1 981.333333 384c0 129.578667-52.565333 246.997333-137.472 331.861333A468.010667 468.010667 0 0 1 512 853.333333zM240.469333 655.530667A382.677333 382.677333 0 0 0 512 768a382.677333 382.677333 0 0 0 271.530667-112.469333A382.677333 382.677333 0 0 0 896 384a382.634667 382.634667 0 0 0-112.469333-271.530667A382.634667 382.634667 0 0 0 512 0a382.677333 382.677333 0 0 0-271.530667 112.469333A382.677333 382.677333 0 0 0 128 384a382.677333 382.677333 0 0 0 112.469333 271.530667z m131.029334-177.365334a42.666667 42.666667 0 0 1-60.330667-60.330666l170.666667-170.666667a42.666667 42.666667 0 0 1 60.330666 0l170.666667 170.666667a42.666667 42.666667 0 0 1-60.330667 60.330666L512 337.664 371.498667 478.165333z"  horiz-adv-x="1024" />
      
      <glyph glyph-name="bbs_list_filled_24x24" unicode="&#59138;" d="M199.125333 696.874667a78.208 78.208 0 1 0-156.458666 0 78.208 78.208 0 0 0 156.458666 0zM320 749.056a42.666667 42.666667 0 0 1-42.666667-42.666667v-18.986666a42.666667 42.666667 0 0 1 42.666667-42.666667H938.666667a42.666667 42.666667 0 0 1 42.666666 42.666667v18.986666a42.666667 42.666667 0 0 1-42.666666 42.666667H320z m-42.666667-355.584a42.666667 42.666667 0 0 0 42.666667 42.666667H938.666667a42.666667 42.666667 0 0 0 42.666666-42.666667v-18.944a42.666667 42.666667 0 0 0-42.666666-42.666667H320a42.666667 42.666667 0 0 0-42.666667 42.666667v18.944zM199.125333 384A78.208 78.208 0 1 0 42.666667 384a78.208 78.208 0 0 0 156.458666 0zM277.333333 80.597333a42.666667 42.666667 0 0 0 42.666667 42.666667H938.666667a42.666667 42.666667 0 0 0 42.666666-42.666667v-18.986666a42.666667 42.666667 0 0 0-42.666666-42.666667H320a42.666667 42.666667 0 0 0-42.666667 42.666667v18.986666z m-78.208-9.472a78.208 78.208 0 1 0-156.458666 0 78.208 78.208 0 0 0 156.458666 0z"  horiz-adv-x="1024" />
      
      <glyph glyph-name="bbs_cy_filled_24x24" unicode="&#59140;" d="M335.317333 160.725333c86.570667 3.370667 140.245333 17.749333 161.066667 43.136 20.864 25.429333 29.610667 42.069333 26.325333 49.877334-2.176 28.501333-10.666667 45.952-25.472 52.394666-14.805333 6.4-24.96 9.045333-30.421333 7.936a84.992 84.992 0 0 1-27.946667-6.698666 127.018667 127.018667 0 0 1-14.805333-6.698667c-50.944-21.248-83.84-29.056-98.602667-23.466667-35.072 0.554667-62.890667 9.514667-83.456 26.794667a160.853333 160.853333 0 0 0-45.610666 61.184c-9.813333 23.466667-16.170667 44.416-18.901334 62.848-2.730667 18.432-3.84 29.610667-3.285333 33.536 0.554667 45.226667 8.234667 81.152 23.04 107.690667 14.762667 26.538667 32 45.952 51.754667 58.24 19.712 12.288 37.674667 20.096 53.845333 23.466666 16.170667 3.328 25.898667 4.992 29.184 4.992 25.173333-1.109333 46.037333-4.608 62.464-10.453333 16.426667-5.888 25.173333-9.088 26.282667-9.642667 27.392-5.546667 41.642667-7.808 42.752-6.698666 21.930667 1.109333 35.754667 8.789333 41.514666 23.04 5.76 14.250667 8.362667 25.6 7.808 33.962666-1.109333 22.869333-9.856 40.746667-26.325333 53.632a158.506667 158.506667 0 0 1-58.325333 28.032 322.432 322.432 0 0 1-61.653334 10.496c-18.645333 1.109333-30.165333 1.706667-34.56 1.706667-102.4-3.925333-176.554667-38.314667-222.293333-103.125333C63.957333 612.138667 41.6 540.373333 42.666667 461.568c0.554667-71.509333 12.885333-127.786667 36.992-168.874667 24.106667-41.045333 52.992-71.082667 86.698666-90.069333 33.706667-18.986667 66.304-30.848 97.834667-35.626667 31.488-4.736 55.168-6.826667 71.082667-6.272z m386.304-172.629333c14.762667 1.706667 26.282667 9.216 34.517334 22.613333 8.192 13.397333 13.141333 22.613333 14.762666 27.648l203.861334 500.309334c4.394667 14.506667 6.570667 25.685333 6.570666 33.493333-1.621333 21.248-9.728 35.498667-24.234666 42.752-14.506667 7.253333-27.306667 10.88-38.229334 10.88-21.333333-2.218667-36.181333-9.6-44.373333-22.186667-8.234667-12.586667-12.074667-19.712-11.52-21.333333l-88.746667-234.666667-85.504 234.666667c-8.746667 20.650667-18.346667 33.194667-28.757333 37.674667a66.986667 66.986667 0 0 1-30.421333 5.845333c-26.88-2.218667-43.264-10.88-49.322667-25.941333-5.973333-15.104-8.192-24.32-6.570667-27.690667 1.109333-21.205333 2.218667-32.384 3.285334-33.493333l134.826666-338.56-52.608-126.549334c-8.234667-19.541333-12.074667-33.493333-11.52-41.898666 1.109333-20.650667 9.6-33.237333 25.472-37.717334 15.914667-4.437333 32.042667-6.4 48.512-5.845333z"  horiz-adv-x="1024" />
      
      <glyph glyph-name="bbs_topic2_filled_24x24" unicode="&#59141;" d="M773.418667 717.610667a57.728 57.728 0 0 1-47.701334 65.962666l-31.274666 5.034667a57.173333 57.173333 0 0 1-65.493334-47.829333l-20.778666-132.864h-144.469334l17.152 109.653333a57.728 57.728 0 0 1-47.701333 66.005333l-31.274667 5.034667a57.216 57.216 0 0 1-65.493333-47.829333l-20.821333-132.864H221.909333c-31.658667 0-57.301333-25.813333-57.301333-57.642667v-32.810667c0-31.829333 25.642667-57.6 57.301333-57.6h70.485334l-23.168-148.138666H185.301333c-31.658667 0-57.301333-25.770667-57.301333-57.6v-32.810667c0-31.829333 25.642667-57.6 57.301333-57.6h60.757334l-17.706667-113.322667a57.728 57.728 0 0 1 47.658667-66.005333l31.274666-4.992a57.216 57.216 0 0 1 65.536 47.872l21.333334 136.448h144.469333l-17.706667-113.322667a57.728 57.728 0 0 1 47.701334-66.005333l31.274666-4.992a57.216 57.216 0 0 1 65.493334 47.872l21.333333 136.448H802.133333c31.658667 0 57.301333 25.770667 57.301334 57.6v32.810667c0 31.829333-25.642667 57.6-57.301334 57.6h-92.16l23.168 148.138666h105.6c31.616 0 57.301333 25.770667 57.301334 57.6v32.810667c0 31.829333-25.685333 57.6-57.301334 57.6h-82.432l17.152 109.738667z m-356.096-405.888l23.210666 148.138666h144.469334l-23.210667-148.138666H417.322667z"  horiz-adv-x="1024" />
      
      <glyph glyph-name="common_attention_line_24x24" unicode="&#59142;" d="M180.138667 715.861333A468.010667 468.010667 0 0 0 512 853.333333c129.578667 0 246.997333-52.565333 331.861333-137.472A468.010667 468.010667 0 0 0 981.333333 384c0-129.578667-52.565333-246.997333-137.472-331.861333A468.010667 468.010667 0 0 0 512-85.333333a468.010667 468.010667 0 0 0-331.861333 137.472A468.010667 468.010667 0 0 0 42.666667 384c0 129.578667 52.565333 246.997333 137.472 331.861333zM512 768a382.677333 382.677333 0 0 1-271.530667-112.469333A382.677333 382.677333 0 0 1 128 384a382.677333 382.677333 0 0 1 112.469333-271.530667A382.677333 382.677333 0 0 1 512 0a382.634667 382.634667 0 0 1 271.530667 112.469333A382.634667 382.634667 0 0 1 896 384a382.677333 382.677333 0 0 1-112.469333 271.530667A382.677333 382.677333 0 0 1 512 768zM512 106.666667a53.333333 53.333333 0 1 1 0 106.666666 53.333333 53.333333 0 0 1 0-106.666666zM512 682.666667a42.666667 42.666667 0 0 0 42.666667-42.666667v-341.333333a42.666667 42.666667 0 1 0-85.333334 0V640a42.666667 42.666667 0 0 0 42.666667 42.666667z"  horiz-adv-x="1024" />
      
      <glyph glyph-name="bbs_link_filled_24x24" unicode="&#59143;" d="M370.218667 408.576l-171.477334-171.434667 166.4-166.4 171.434667 171.52a36.693333 36.693333 0 0 0 51.925333 0l37.845334-37.888a36.693333 36.693333 0 0 0 0-51.882666L403.925333-69.973333a52.48 52.48 0 0 0-74.197333 0L58.026667 201.728a52.437333 52.437333 0 0 0 0 74.154667L280.490667 498.346667a36.693333 36.693333 0 0 0 51.882666 0l37.845334-37.845334a36.693333 36.693333 0 0 0 0-51.925333zM694.272 837.973333l271.701333-271.701333c20.48-20.48 20.48-53.674667 0-74.154667l-222.464-222.506666a36.693333 36.693333 0 0 0-51.925333 0l-37.802667 37.845333a36.693333 36.693333 0 0 0 0 51.925333l171.434667 171.434667-166.4 166.4-171.434667-171.477333a36.693333 36.693333 0 0 0-51.882666 0L397.653333 563.626667a36.693333 36.693333 0 0 0 0 51.925333l222.464 222.464c20.48 20.48 53.674667 20.48 74.154667 0z m-241.066667-602.410666a63.445333 63.445333 0 0 0-89.685333 89.642666l207.232 207.232a63.445333 63.445333 0 0 0 89.728-89.685333l-207.232-207.189333z"  horiz-adv-x="1024" />
      
      <glyph glyph-name="bbs_emoji_filled_24x24" unicode="&#59144;" d="M512-42.666667c235.648 0 426.666667 191.018667 426.666667 426.666667S747.648 810.666667 512 810.666667 85.333333 619.648 85.333333 384s191.018667-426.666667 426.666667-426.666667zM298.666667 440.874667a71.125333 71.125333 0 1 0 0 142.250666 71.125333 71.125333 0 0 0 0-142.250666zM796.458667 512a71.125333 71.125333 0 1 0-142.250667 0 71.125333 71.125333 0 0 0 142.250667 0zM512 99.541333c-144 0-260.736 98.56-260.736 237.056H772.693333c0-138.496-116.736-237.056-260.736-237.056z"  horiz-adv-x="1024" />
      
      <glyph glyph-name="bbs_send_filled_24x24" unicode="&#59145;" d="M512-42.666667c235.648 0 426.666667 191.018667 426.666667 426.666667S747.648 810.666667 512 810.666667 85.333333 619.648 85.333333 384s191.018667-426.666667 426.666667-426.666667z m-10.88 659.2a28.501333 28.501333 0 0 0 30.976-6.144l170.666667-169.642666a28.16 28.16 0 0 0 0-39.978667 28.586667 28.586667 0 0 0-40.234667 0l-122.112 121.386667v-344.533334A28.373333 28.373333 0 0 0 512 149.333333a28.373333 28.373333 0 0 0-28.458667 28.288V522.154667l-122.112-121.386667a28.586667 28.586667 0 0 0-40.234666 0 28.16 28.16 0 0 0 0 39.978667l170.666666 169.642666a28.373333 28.373333 0 0 0 9.258667 6.144z"  horiz-adv-x="1024" />
      
      <glyph glyph-name="bbs_post_filled_24x24" unicode="&#59146;" d="M917.333333 768h-810.666666A64 64 0 0 1 42.666667 704v-554.666667A64 64 0 0 1 106.666667 85.333333H213.333333v-140.16c0-9.386667 11.306667-14.208 18.090667-7.68L384 85.333333h533.333333a64 64 0 0 1 64 64v554.666667A64 64 0 0 1 917.333333 768zM170.666667 597.333333a42.666667 42.666667 0 0 0 42.666666 42.666667h597.333334a42.666667 42.666667 0 1 0 0-85.333333H213.333333a42.666667 42.666667 0 0 0-42.666666 42.666666z m42.666666-128h384a42.666667 42.666667 0 1 0 0-85.333333H213.333333a42.666667 42.666667 0 1 0 0 85.333333z"  horiz-adv-x="1024" />
      
      <glyph glyph-name="bbs_header_filled_24x24" unicode="&#59120;" d="M701.610667 306.432H322.389333v-271.530667C322.389333-7.936 288.426667-42.666667 246.528-42.666667S170.666667-7.936 170.666667 34.901333V733.098667C170.666667 775.936 204.629333 810.666667 246.528 810.666667s75.861333-34.730667 75.861333-77.568v-271.530667h379.221334V733.098667c0 42.837333 33.962667 77.568 75.861333 77.568S853.333333 775.936 853.333333 733.098667v-698.197334C853.333333-7.936 819.370667-42.666667 777.472-42.666667s-75.861333 34.730667-75.861333 77.568v271.530667z"  horiz-adv-x="1024" />
      
      <glyph glyph-name="bbs_separator_filled_24x24" unicode="&#59121;" d="M85.333333 749.056a42.666667 42.666667 0 0 1-42.666666-42.666667v-18.986666a42.666667 42.666667 0 0 1 42.666666-42.666667h853.333334a42.666667 42.666667 0 0 1 42.666666 42.666667v18.986666a42.666667 42.666667 0 0 1-42.666666 42.666667H85.333333zM199.125333 384A78.208 78.208 0 1 0 42.666667 384a78.208 78.208 0 0 0 156.458666 0zM42.666667 80.597333a42.666667 42.666667 0 0 0 42.666666 42.666667h853.333334a42.666667 42.666667 0 0 0 42.666666-42.666667v-18.986666a42.666667 42.666667 0 0 0-42.666666-42.666667H85.333333a42.666667 42.666667 0 0 0-42.666666 42.666667v18.986666zM459.861333 384a78.208 78.208 0 1 0-156.458666 0 78.208 78.208 0 0 0 156.458666 0z m182.528-78.208a78.208 78.208 0 1 1 0 156.416 78.208 78.208 0 0 1 0-156.416zM981.333333 384a78.208 78.208 0 1 0-156.458666 0A78.208 78.208 0 0 0 981.333333 384z"  horiz-adv-x="1024" />
      
      <glyph glyph-name="common_arrow_right_filled_24x24" unicode="&#59122;" d="M298.666667-42.666667V810.666667l512-426.666667L298.666667-42.666667z"  horiz-adv-x="1024" />
      
      <glyph glyph-name="common_camera_filled_24x24" unicode="&#59123;" d="M384 810.666667a42.666667 42.666667 0 0 1-38.144-23.594667L293.632 682.666667H149.333333A106.666667 106.666667 0 0 1 42.666667 576v-512A106.666667 106.666667 0 0 1 149.333333-42.666667h725.333334a106.666667 106.666667 0 0 1 106.666666 106.666667v512A106.666667 106.666667 0 0 1 874.666667 682.666667h-144.298667l-52.224 104.405333A42.666667 42.666667 0 0 1 640 810.666667H384z m128-298.666667a192 192 0 1 0 0-384 192 192 0 0 0 0 384z"  horiz-adv-x="1024" />
      
      <glyph glyph-name="common_arrow_left_line_24x24" unicode="&#59124;" d="M484.608 806.784a53.333333 53.333333 0 0 0 2.133333-75.392L158.72 384l328.106667-347.392a53.333333 53.333333 0 0 0-77.568-73.216l-362.666667 384a53.333333 53.333333 0 0 0 0 73.216l362.666667 384a53.333333 53.333333 0 0 0 75.392 2.133333z"  horiz-adv-x="1024" />
      
      <glyph glyph-name="common_del_line_24x24" unicode="&#59125;" d="M239.701333 729.472A85.333333 85.333333 0 0 0 311.04 768H917.333333a85.333333 85.333333 0 0 0 85.333334-85.333333v-597.333334a85.333333 85.333333 0 0 0-85.333334-85.333333H311.04a85.333333 85.333333 0 0 0-71.338667 38.528L28.330667 360.533333a42.666667 42.666667 0 0 0 0 46.848l211.370666 322.048zM917.333333 682.666667H311.04l-196.010667-298.666667 196.010667-298.666667H917.333333V682.666667zM439.168 520.832a42.666667 42.666667 0 0 0 60.330667 0l213.333333-213.333333a42.666667 42.666667 0 0 0-60.330667-60.330667l-213.333333 213.333333a42.666667 42.666667 0 0 0 0 60.330667zM712.832 520.832a42.666667 42.666667 0 0 0 0-60.330667l-213.333333-213.333333a42.666667 42.666667 0 0 0-60.330667 60.330667l213.333333 213.333333a42.666667 42.666667 0 0 0 60.330667 0z"  horiz-adv-x="1024" />
      
      <glyph glyph-name="bbs_video-2_filled_24x24" unicode="&#59126;" d="M254.122667 752A10.666667 10.666667 0 0 1 244.906667 768H106.666667A64 64 0 0 1 42.666667 704v-96c0-5.888 4.778667-10.666667 10.666666-10.666667h105.344a10.666667 10.666667 0 0 1 9.216 5.333334l86.229334 149.333333z m-6.144-138.666667A10.666667 10.666667 0 0 1 257.194667 597.333333h157.44a10.666667 10.666667 0 0 1 9.258666 5.333334l86.229334 149.333333A10.666667 10.666667 0 0 1 500.906667 768H343.424a10.666667 10.666667 0 0 1-9.216-5.333333l-86.229333-149.333334z m342.186666 149.333334A10.666667 10.666667 0 0 0 599.466667 768h146.773333a10.666667 10.666667 0 0 0 9.258667-16l-86.186667-149.333333a10.666667 10.666667 0 0 0-9.258667-5.333334h-146.773333a10.666667 10.666667 0 0 0-9.258667 16l86.186667 149.333334zM981.333333 608a10.666667 10.666667 0 0 0-10.666666-10.666667h-212.138667a10.666667 10.666667 0 0 0-9.216 16l86.186667 149.333334A10.666667 10.666667 0 0 0 844.8 768H917.333333A64 64 0 0 0 981.333333 704v-96z m0-85.333333a10.666667 10.666667 0 0 1-10.666666 10.666666H53.333333a10.666667 10.666667 0 0 1-10.666666-10.666666V64A64 64 0 0 1 106.666667 0h810.666666a64 64 0 0 1 64 64V522.666667z m-341.333333-237.525334a21.333333 21.333333 0 0 0 0-36.949333l-192-110.848a21.333333 21.333333 0 0 0-32 18.474667v221.696a21.333333 21.333333 0 0 0 32 18.474666l192-110.848z"  horiz-adv-x="1024" />
      
      <glyph glyph-name="bbs_keyboard_filled_24x24" unicode="&#59127;" d="M85.333333 768a42.666667 42.666667 0 0 1-42.666666-42.666667v-682.666666a42.666667 42.666667 0 0 1 42.666666-42.666667h853.333334a42.666667 42.666667 0 0 1 42.666666 42.666667V725.333333a42.666667 42.666667 0 0 1-42.666666 42.666667H85.333333z m295.893334-144.725333h77.184c12.629333 0 22.869333-10.24 22.869333-22.869334v-79.573333c0-12.629333-10.24-22.826667-22.869333-22.826667h-77.226667a22.869333 22.869333 0 0 0-22.826667 22.826667V600.405333c0 12.629333 10.24 22.869333 22.869334 22.869334z m-184.405334 0h77.226667c12.586667 0 22.826667-10.24 22.826667-22.869334v-79.573333c0-12.629333-10.24-22.826667-22.826667-22.826667h-77.226667a22.869333 22.869333 0 0 0-22.869333 22.826667V600.405333c0 12.629333 10.24 22.869333 22.869333 22.869334z m345.898667-22.869334c0 12.629333 10.24 22.869333 22.869333 22.869334h77.226667c12.586667 0 22.826667-10.24 22.826667-22.869334v-79.573333c0-12.629333-10.24-22.826667-22.869334-22.826667h-77.226666a22.869333 22.869333 0 0 0-22.826667 22.826667V600.405333z m207.232 22.869334h77.226667c12.629333 0 22.869333-10.24 22.869333-22.869334v-79.573333c0-12.629333-10.24-22.826667-22.869333-22.826667h-77.226667a22.869333 22.869333 0 0 0-22.826667 22.826667V600.405333c0 12.629333 10.24 22.869333 22.826667 22.869334z m-576-210.773334c0 12.629333 10.24 22.869333 22.869333 22.869334h77.226667c12.586667 0 22.826667-10.24 22.826667-22.869334v-79.573333c0-12.629333-10.24-22.869333-22.826667-22.869333h-77.226667a22.869333 22.869333 0 0 0-22.869333 22.869333v79.573333z m207.274667 22.869334h77.184c12.629333 0 22.869333-10.24 22.869333-22.869334v-79.573333c0-12.629333-10.24-22.869333-22.869333-22.869333h-77.226667a22.869333 22.869333 0 0 0-22.826667 22.869333v79.573333c0 12.629333 10.24 22.869333 22.869334 22.869334z m-22.869334-242.133334c0 12.629333 10.24 22.869333 22.869334 22.869334h261.546666c12.629333 0 22.869333-10.24 22.869334-22.869334v-48.213333c0-12.629333-10.24-22.869333-22.869334-22.869333h-261.546666a22.869333 22.869333 0 0 0-22.869334 22.869333v48.213333z m207.232 242.133334h77.226667c12.586667 0 22.826667-10.24 22.826667-22.869334v-79.573333c0-12.629333-10.24-22.869333-22.869334-22.869333h-77.226666a22.869333 22.869333 0 0 0-22.826667 22.869333v79.573333c0 12.629333 10.24 22.869333 22.869333 22.869334z m161.536-22.869334c0 12.629333 10.24 22.869333 22.826667 22.869334h77.226667c12.629333 0 22.869333-10.24 22.869333-22.869334v-79.573333c0-12.629333-10.24-22.869333-22.869333-22.869333h-77.226667a22.869333 22.869333 0 0 0-22.826667 22.869333v79.573333z"  horiz-adv-x="1024" />
      
      <glyph glyph-name="common_arrow_up_filled_24x24" unicode="&#59128;" d="M85.333333 170.666667h853.333334L512 682.666667 85.333333 170.666667z"  horiz-adv-x="1024" />
      
      <glyph glyph-name="common_copy_line_24x24" unicode="&#59129;" d="M321.664 746.666667a18.944 18.944 0 0 1-18.944-18.944 42.666667 42.666667 0 1 0-85.333333 0A104.277333 104.277333 0 0 0 321.664 832h534.058667A104.277333 104.277333 0 0 0 960 727.722667v-534.058667a104.277333 104.277333 0 0 0-104.277333-104.277333 42.666667 42.666667 0 1 0 0 85.333333 18.944 18.944 0 0 1 18.944 18.944V727.722667a18.944 18.944 0 0 1-18.944 18.944H321.664zM64 534.613333a100.181333 100.181333 0 0 0 100.181333 100.181334H662.613333a100.181333 100.181333 0 0 0 100.181334-100.181334v-498.432A100.181333 100.181333 0 0 0 662.613333-64H164.181333A100.181333 100.181333 0 0 0 64 36.181333V534.613333z m100.181333 14.848a14.848 14.848 0 0 1-14.848-14.848v-498.432c0-8.192 6.656-14.848 14.848-14.848H662.613333a14.848 14.848 0 0 1 14.848 14.848V534.613333a14.848 14.848 0 0 1-14.848 14.848H164.181333z"  horiz-adv-x="1024" />
      
      <glyph glyph-name="common_email_line_24x24" unicode="&#59130;" d="M34.133333 610.133333A179.2 179.2 0 0 0 213.333333 789.333333h597.333334a179.2 179.2 0 0 0 179.2-179.2v-469.333333a179.2 179.2 0 0 0-179.2-179.2H213.333333a179.2 179.2 0 0 0-179.2 179.2v469.333333zM213.333333 686.933333a76.8 76.8 0 0 1-76.8-76.8v-16l331.434667-232.021333a76.8 76.8 0 0 1 88.064 0L887.466667 594.133333V610.133333A76.8 76.8 0 0 1 810.666667 686.933333H213.333333z m674.133334-217.813333l-272.682667-190.890667a179.2 179.2 0 0 0-205.525333 0L136.533333 469.12V140.8A76.8 76.8 0 0 1 213.333333 64h597.333334a76.8 76.8 0 0 1 76.8 76.8v328.32z"  horiz-adv-x="1024" />
      
      <glyph glyph-name="bbs_strikethrough_filled_24x24" unicode="&#59131;" d="M259.541333 198.826667c-36.992 0-67.498667-31.146667-56.106666-66.304C232.533333 42.496 320.554667-42.666667 507.008-42.666667c186.88 0 324.992 88.106667 324.992 248.704 0 17.962667-1.664 34.56-4.821333 49.962667h58.154666a53.333333 53.333333 0 1 1 0 106.666667H181.333333a53.333333 53.333333 0 1 1 0-106.666667h502.741334c12.032-16.64 17.92-36.437333 17.92-60.16 0-82.090667-69.973333-134.229333-183.765334-134.229333-91.733333 0-152.192 33.92-180.821333 81.365333-17.408 28.842667-44.16 55.893333-77.866667 55.893333z m348.074667 232.533333c6.229333-1.493333 12.373333-3.072 18.346667-4.693333H274.517333c-35.370667 34.688-58.112 81.621333-58.112 144.298666C216.362667 726.186667 358.869333 810.666667 519.509333 810.666667c133.888 0 256.042667-58.453333 291.584-171.392 10.794667-34.432-19.370667-64.725333-55.466666-64.725334-33.237333 0-59.392 26.709333-75.776 55.637334-25.728 45.354667-79.36 76.8-162.218667 76.8-101.248 0-171.904-46.122667-171.904-127.018667 0-55.125333 38.784-95.274667 119.381333-113.877333l142.506667-34.730667z"  horiz-adv-x="1024" />
      
      <glyph glyph-name="bbs_code_filled_24x24" unicode="&#59132;" d="M670.208 751.786667a74.666667 74.666667 0 1 1-145.749333 32.426666l-170.666667-768a74.666667 74.666667 0 1 1 145.749333-32.426666l170.666667 768zM339.626667 699.221333a74.666667 74.666667 0 0 0 13.781333-104.704l-162.986667-212.224 162.602667-208.384a74.666667 74.666667 0 0 0-117.76-91.861333L37.12 336a74.666667 74.666667 0 0 0-0.341333 91.434667l198.144 258.005333a74.666667 74.666667 0 0 0 104.661333 13.781333z m344.96 0a74.666667 74.666667 0 0 1-13.738667-104.704l162.901333-212.224-162.56-208.384a74.666667 74.666667 0 0 1 117.76-91.861333l198.101334 253.952a74.666667 74.666667 0 0 1 0.341333 91.434667l-198.101333 258.005333a74.666667 74.666667 0 0 1-104.704 13.781333zM670.208 751.786667a74.666667 74.666667 0 1 1-145.749333 32.426666l-170.666667-768a74.666667 74.666667 0 1 1 145.749333-32.426666l170.666667 768zM339.626667 699.221333a74.666667 74.666667 0 0 0 13.781333-104.704l-162.986667-212.224 162.602667-208.384a74.666667 74.666667 0 0 0-117.76-91.861333L37.12 336a74.666667 74.666667 0 0 0-0.341333 91.434667l198.144 258.005333a74.666667 74.666667 0 0 0 104.661333 13.781333z m344.96 0a74.666667 74.666667 0 0 1-13.738667-104.704l162.901333-212.224-162.56-208.384a74.666667 74.666667 0 0 1 117.76-91.861333l198.101334 253.952a74.666667 74.666667 0 0 1 0.341333 91.434667l-198.101333 258.005333a74.666667 74.666667 0 0 1-104.704 13.781333z"  horiz-adv-x="1024" />
      
      <glyph glyph-name="common_arrow_right_line_24x24" unicode="&#59133;" d="M283.392-38.784a53.333333 53.333333 0 0 0-2.133333 75.392L609.28 384 281.173333 731.392A53.333333 53.333333 0 0 0 358.826667 804.608l362.666666-384a53.333333 53.333333 0 0 0 0-73.216l-362.666666-384a53.333333 53.333333 0 0 0-75.392-2.133333z"  horiz-adv-x="1024" />
      
      <glyph glyph-name="bbs_underline_filled_24x24" unicode="&#59134;" d="M309.333333 768a53.333333 53.333333 0 1 1-106.666666 0v-341.333333a309.333333 309.333333 0 1 1 618.666666 0V768a53.333333 53.333333 0 1 1-106.666666 0v-341.333333a202.666667 202.666667 0 1 0-405.333334 0V768z m-64-746.666667a53.333333 53.333333 0 1 1 0-106.666666h533.333334a53.333333 53.333333 0 1 1 0 106.666666H245.333333z"  horiz-adv-x="1024" />
      
      <glyph glyph-name="bbs_nocy_filled_24x24" unicode="&#59135;" d="M85.632 810.325333a48.64 48.64 0 0 1-28.714667-82.645333l52.010667-52.010667C63.701333 611.157333 41.6 539.733333 42.666667 461.397333c0.554667-71.509333 12.885333-127.786667 36.992-168.874666 24.106667-41.045333 52.992-71.082667 86.698666-90.069334 33.706667-18.986667 66.304-30.890667 97.792-35.626666 31.530667-4.736 55.210667-6.826667 71.125334-6.272 86.570667 3.328 140.245333 17.749333 161.066666 43.136 20.821333 25.429333 29.610667 42.069333 26.325334 49.877333a149.504 149.504 0 0 1-1.024 9.301333l152.746666-152.704-15.274666-36.778666c-8.234667-19.541333-12.074667-33.493333-11.52-41.898667 1.109333-20.650667 9.6-33.237333 25.472-37.717333 15.914667-4.437333 32.042667-6.4 48.512-5.845334 14.762667 1.706667 26.282667 9.216 34.517333 22.613334 2.56 4.138667 4.736 7.893333 6.656 11.264l50.218667-50.218667 4.608-4.053333a48.64 48.64 0 0 1 78.08 32.810666 48.469333 48.469333 0 0 0-5.674667-0.341333c0 10.410667-3.285333 20.778667-9.856 29.44l-4.352 4.906667L119.637333 790.485333l-4.565333 4.053334A48.469333 48.469333 0 0 1 85.333333 804.693333c0 1.877333 0.085333 3.754667 0.298667 5.589334z m742.698667-631.253333l146.432 359.424c4.394667 14.506667 6.570667 25.685333 6.570666 33.493333-1.621333 21.248-9.728 35.498667-24.234666 42.752-14.506667 7.253333-27.306667 10.88-38.229334 10.88-21.333333-2.218667-36.181333-9.6-44.373333-22.186666-8.234667-12.586667-12.074667-19.712-11.52-21.333334l-88.746667-234.666666-85.504 234.666666c-8.746667 20.650667-18.346667 33.194667-28.757333 37.674667a66.986667 66.986667 0 0 1-30.421333 5.845333c-26.88-2.218667-43.264-10.88-49.322667-25.941333-5.973333-15.104-8.192-24.32-6.570667-27.690667 1.109333-21.205333 2.218667-32.384 3.285334-33.493333l71.509333-179.541333 179.882667-179.882667zM353.152 654.208c15.957333-1.792 29.738667-4.736 41.344-8.874667 16.426667-5.845333 25.173333-9.088 26.282667-9.642666 27.392-5.546667 41.642667-7.808 42.752-6.698667 21.930667 1.109333 35.754667 8.789333 41.514666 23.04 5.76 14.250667 8.362667 25.6 7.808 33.962667-1.109333 22.869333-9.856 40.746667-26.325333 53.632a158.464 158.464 0 0 1-58.325333 28.074666 322.432 322.432 0 0 1-61.653334 10.453334c-18.645333 1.109333-30.165333 1.706667-34.56 1.706666a389.546667 389.546667 0 0 1-91.008-13.525333l112.170667-112.128zM197.205333 569.088c2.218667 3.968 4.522667 7.808 6.826667 11.434667l266.410667-266.368a15.146667 15.146667 0 0 1-3.626667-0.256 85.034667 85.034667 0 0 1-27.946667-6.698667 126.122667 126.122667 0 0 1-14.805333-6.698667c-50.944-21.248-83.84-29.056-98.602667-23.466666-35.072 0.554667-62.890667 9.514667-83.456 26.794666a160.853333 160.853333 0 0 0-45.610666 61.184c-9.856 23.466667-16.170667 44.416-18.901334 62.848-2.730667 18.432-3.84 29.610667-3.285333 33.536 0.554667 45.226667 8.234667 81.152 23.04 107.690667z"  horiz-adv-x="1024" />
      
      <glyph glyph-name="common_arrow_up_line_24x24" unicode="&#59103;" d="M934.784 187.392a53.333333 53.333333 0 0 0-75.392-2.133333L512 513.28l-347.392-328.106667a53.333333 53.333333 0 1 0-73.216 77.568l384 362.666667a53.333333 53.333333 0 0 0 73.216 0l384-362.666667a53.333333 53.333333 0 0 0 2.133333-75.392z"  horiz-adv-x="1024" />
      
      <glyph glyph-name="bbs_numlist_filled_24x24" unicode="&#59104;" d="M116.778667 572.117333V728.234667h-1.066667l-46.933333-33.834667V745.728l48 34.986667h56.277333v-208.64h-56.32zM320 754.602667a42.666667 42.666667 0 0 1-42.666667-42.666667v-18.944a42.666667 42.666667 0 0 1 42.666667-42.666667H938.666667a42.666667 42.666667 0 0 1 42.666666 42.666667v18.944a42.666667 42.666667 0 0 1-42.666666 42.666667H320z m-218.453333-686.08v-39.936h20.48c20.138667 0 30.976-7.893333 30.976-22.613334 0-13.141333-10.965333-21.888-26.368-21.888-17.408 0-27.306667 9.173333-28.544 20.906667H42.666667c1.92-41.386667 35.541333-67.968 83.968-67.968 52.992 0 85.504 25.045333 85.504 64.512 0 27.477333-18.645333 44.8-48.853334 48.085333v1.152c21.845333 4.565333 40.618667 21.162667 40.618667 47.914667 0 36.778667-33.621333 56.234667-77.525333 56.234667-45.994667 0-77.397333-25.770667-78.933334-66.56h52.48c1.066667 13.482667 10.666667 22.357333 26.453334 22.357333 14.122667 0 24.021333-7.296 24.021333-20.736 0-13.312-10.453333-21.504-28.416-21.504h-20.48z m218.453333 373.205333a42.666667 42.666667 0 0 1-42.666667-42.666667v-18.944a42.666667 42.666667 0 0 1 42.666667-42.666666H938.666667a42.666667 42.666667 0 0 1 42.666666 42.666666v18.944a42.666667 42.666667 0 0 1-42.666666 42.666667H320zM42.666667 397.354667c0 42.581333 30.848 70.442667 77.354666 70.442666 46.890667 0 76.8-24.874667 76.8-61.738666 0-27.306667-13.354667-41.472-43.264-68.778667l-35.157333-31.914667v-1.152h80.725333v-45.013333H45.994667v40.661333l68.565333 61.738667c23.082667 20.821333 27.733333 29.269333 27.733333 40.533333 0 12.928-9.429333 21.632-22.272 21.632-14.677333 0-25.770667-10.112-25.770666-26.453333H42.666667z m277.333333-268.501334a42.666667 42.666667 0 0 1-42.666667-42.666666v-18.986667a42.666667 42.666667 0 0 1 42.666667-42.666667H938.666667a42.666667 42.666667 0 0 1 42.666666 42.666667v18.986667a42.666667 42.666667 0 0 1-42.666666 42.666666H320z"  horiz-adv-x="1024" />
      
      <glyph glyph-name="common_face2_filled_24x24" unicode="&#59105;" d="M981.333333 384c0 259.2-210.133333 469.333333-469.333333 469.333333S42.666667 643.2 42.666667 384s210.133333-469.333333 469.333333-469.333333 469.333333 210.133333 469.333333 469.333333zM199.082667 524.8a78.208 78.208 0 1 0 156.458666 0 78.208 78.208 0 0 0-156.458666 0z m469.333333 0a78.208 78.208 0 1 0 156.458667 0 78.208 78.208 0 0 0-156.416 0z m-378.581333-302.634667c3.242667 3.114667 0 0.042667 0 0.042667h0.042666l0.085334 0.085333 0.128 0.170667c5.12 4.949333 10.666667 9.429333 16.298666 13.653333 9.813333 7.381333 23.978667 16.768 42.538667 26.026667C386.133333 280.832 440.661333 298.666667 512 298.666667c71.381333 0 125.866667-17.92 163.072-36.48 18.56-9.301333 32.725333-18.688 42.538667-26.026667a197.461333 197.461333 0 0 0 16.512-13.952s0 1.664 0.042666 0a42.666667 42.666667 0 0 0-60.074666-60.629333 110.165333 110.165333 0 0 1-7.68 6.272 193.621333 193.621333 0 0 1-29.482667 18.005333C610.133333 199.253333 568.661333 213.333333 512 213.333333c-56.618667 0-98.133333-14.08-124.928-27.477333a193.706667 193.706667 0 0 1-29.44-17.962667 111.786667 111.786667 0 0 1-7.68-6.272l-0.085333-0.042666a42.666667 42.666667 0 0 0-60.032 60.586666z"  horiz-adv-x="1024" />
      
      <glyph glyph-name="common_copy_filled_24x24" unicode="&#59106;" d="M275.328 716.501333c-15.488-22.4 5.546667-47.957333 32.768-47.957333h396.416c43.818667 0 65.706667 0 82.517333-8.405333 15.36-7.68 27.904-20.181333 35.584-35.584 8.405333-16.810667 8.405333-38.698667 8.405334-82.517334V149.333333c0-29.184 27.52-51.626667 50.986666-34.304a119.168 119.168 0 0 1 48.469334 96V648.704A119.338667 119.338667 0 0 1 811.093333 768H373.546667c-40.704 0-76.672-20.394667-98.218667-51.498667zM114.901333 515.456c0 51.626667 41.813333 93.44 93.44 93.44h464.725334c51.584 0 93.397333-41.813333 93.397333-93.44V50.773333a93.44 93.44 0 0 0-93.44-93.44H208.384a93.44 93.44 0 0 0-93.44 93.44V515.456z"  horiz-adv-x="1024" />
      
      <glyph glyph-name="common_refresh_line_24x24" unicode="&#59107;" d="M512 819.2a434.005333 434.005333 0 0 1-307.712-127.488c-7.168-7.125333-15.786667-16.128-25.088-26.026667V704a51.2 51.2 0 0 1-102.4 0v-170.666667a51.029333 51.029333 0 0 1 20.650667-41.088c8.533333-6.4 19.114667-10.112 30.549333-10.112h170.666667a51.2 51.2 0 0 1 0 102.4H243.498667c12.629333 13.610667 24.405333 26.026667 33.194666 34.773334a332.8 332.8 0 1 0 0-470.613334 51.2 51.2 0 1 1-72.405333-72.405333A433.962667 433.962667 0 0 1 512-51.2c240.341333 0 435.2 194.858667 435.2 435.2 0 240.341333-194.858667 435.2-435.2 435.2z"  horiz-adv-x="1024" />
      
      <glyph glyph-name="common_help_line_24x24" unicode="&#59108;" d="M180.138667 715.861333A468.010667 468.010667 0 0 0 512 853.333333c129.578667 0 246.997333-52.565333 331.861333-137.472A468.010667 468.010667 0 0 0 981.333333 384c0-129.578667-52.565333-246.997333-137.472-331.861333A468.010667 468.010667 0 0 0 512-85.333333a468.010667 468.010667 0 0 0-331.861333 137.472A468.010667 468.010667 0 0 0 42.666667 384c0 129.578667 52.565333 246.997333 137.472 331.861333zM512 768a382.677333 382.677333 0 0 1-271.530667-112.469333A382.677333 382.677333 0 0 1 128 384a382.677333 382.677333 0 0 1 112.469333-271.530667A382.677333 382.677333 0 0 1 512 0a382.634667 382.634667 0 0 1 271.530667 112.469333A382.634667 382.634667 0 0 1 896 384a382.677333 382.677333 0 0 1-112.469333 271.530667A382.677333 382.677333 0 0 1 512 768zM341.333333 486.4a170.666667 170.666667 0 1 0 276.224-134.101333c-18.432-14.506667-34.858667-28.416-46.762666-43.050667-11.690667-14.421333-16.128-26.026667-16.128-36.181333h-85.333334c0 36.992 16.64 67.114667 35.242667 90.026666 18.432 22.613333 41.557333 41.557333 60.16 56.234667A85.333333 85.333333 0 1 1 426.666667 486.4a42.666667 42.666667 0 1 0-85.333334 0zM512 123.733333a53.333333 53.333333 0 1 1 0 106.666667 53.333333 53.333333 0 0 1 0-106.666667z"  horiz-adv-x="1024" />
      
      <glyph glyph-name="common_error_filled_24x24" unicode="&#59109;" d="M138.368 653.824l103.808 103.808L512 487.765333l269.824 269.866667 103.808-103.808L615.765333 384l269.866667-269.824-103.808-103.808L512 280.234667l-269.824-269.866667-103.808 103.808L408.234667 384 138.368 653.824zM234.837333 764.970667a10.368 10.368 0 0 0 14.677334 0L512 502.442667l262.485333 262.528a10.368 10.368 0 0 0 14.677334 0l103.808-103.808a10.368 10.368 0 0 0 0-14.677334L630.442667 384l262.528-262.485333a10.368 10.368 0 0 0 0-14.677334l-103.808-103.808a10.368 10.368 0 0 0-14.677334 0L512 265.557333 249.514667 2.986667a10.368 10.368 0 0 0-14.677334 0L130.986667 106.837333a10.368 10.368 0 0 0 0 14.677334L393.557333 384 130.986667 646.485333a10.368 10.368 0 0 0 0 14.677334L234.837333 765.013333zM153.045333 653.824l262.528-262.485333a10.368 10.368 0 0 0 0-14.677334l-262.528-262.485333 89.130667-89.130667 262.485333 262.528a10.368 10.368 0 0 0 14.677334 0l262.485333-262.528 89.130667 89.130667-262.528 262.485333a10.368 10.368 0 0 0 0 14.677334l262.528 262.485333-89.130667 89.130667-262.485333-262.528a10.368 10.368 0 0 0-14.677334 0L242.176 742.954667 153.045333 653.824z"  horiz-adv-x="1024" />
      
      <glyph glyph-name="common_person_line_24x24" unicode="&#59110;" d="M275.584 537.045333c0-129.408 105.216-234.752 235.605333-235.178666h1.621334c130.389333 0.426667 235.605333 105.770667 235.605333 235.178666 0 129.706667-105.642667 235.221333-236.373333 235.221334-130.816 0-236.458667-105.514667-236.458667-235.221334z m45.397333-273.664a332.544 332.544 0 0 0-143.530666 273.664C177.450667 721.365333 327.424 870.4 512 870.4c184.576 0 334.549333-149.034667 334.549333-333.354667a332.544 332.544 0 0 0-143.530666-273.664C837.589333 206.08 934.4 89.6 934.4-53.333333a49.066667 49.066667 0 1 0-98.133333 0c0 133.12-135.210667 256.682667-323.413334 257.066666h-1.706666c-188.202667-0.426667-323.413333-123.946667-323.413334-257.066666a49.066667 49.066667 0 1 0-98.133333 0c0 142.976 96.853333 259.413333 231.381333 316.714666z"  horiz-adv-x="1024" />
      
      <glyph glyph-name="common_modify_line_24x24" unicode="&#59111;" d="M919.594667 791.594667a64.597333 64.597333 0 0 1-91.562667 0.042666l-336.213333-336.128c-25.130667-25.173333-57.685333-72.106667-72.448-104.533333l-49.664-109.269333 109.226666 49.664c32.554667 14.762667 79.274667 47.189333 104.533334 72.490666l336.213333 336.128a64.853333 64.853333 0 0 1-0.085333 91.605334zM175.274667 545.152a128 128 0 0 0 128 128h279.808a42.666667 42.666667 0 1 1 0 85.333333H303.232a213.333333 213.333333 0 0 1-213.333333-213.333333v-369.877333a213.333333 213.333333 0 0 1 213.333333-213.333334h369.92a213.333333 213.333333 0 0 1 213.333333 213.333334v279.765333a42.666667 42.666667 0 0 1-85.333333 0v-279.765333a128 128 0 0 0-128-128h-369.92a128 128 0 0 0-128 128v369.92z"  horiz-adv-x="1024" />
      
      <glyph glyph-name="common_close_line_24x24" unicode="&#59112;" d="M889.557333 761.514667a51.2 51.2 0 0 0 0-72.405334l-682.666666-682.666666a51.2 51.2 0 0 0-72.405334 72.448l682.666667 682.666666a51.2 51.2 0 0 0 72.405333 0zM134.485333 761.514667a51.2 51.2 0 0 0 72.405334 0l682.666666-682.666667a51.2 51.2 0 0 0-72.448-72.405333l-682.666666 682.666666a51.2 51.2 0 0 0 0 72.405334z"  horiz-adv-x="1024" />
      
      <glyph glyph-name="common_list1_filled_24x24" unicode="&#59113;" d="M192 768a85.333333 85.333333 0 0 1-85.333333-85.333333v-128a85.333333 85.333333 0 0 1 85.333333-85.333334h170.666667a85.333333 85.333333 0 0 1 85.333333 85.333334V682.666667a85.333333 85.333333 0 0 1-85.333333 85.333333h-170.666667z m0-469.333333a85.333333 85.333333 0 0 1-85.333333-85.333334v-128a85.333333 85.333333 0 0 1 85.333333-85.333333h170.666667a85.333333 85.333333 0 0 1 85.333333 85.333333v128a85.333333 85.333333 0 0 1-85.333333 85.333334h-170.666667z m352 405.333333a42.666667 42.666667 0 0 0 42.666667 42.666667h341.333333a42.666667 42.666667 0 1 0 0-85.333334h-341.333333a42.666667 42.666667 0 0 0-42.666667 42.666667z m42.666667-426.666667a42.666667 42.666667 0 1 1 0-85.333333h341.333333a42.666667 42.666667 0 1 1 0 85.333333h-341.333333z m-42.666667 256a42.666667 42.666667 0 0 0 42.666667 42.666667h341.333333a42.666667 42.666667 0 1 0 0-85.333333h-341.333333a42.666667 42.666667 0 0 0-42.666667 42.666666z m42.666667-426.666666a42.666667 42.666667 0 1 1 0-85.333334h341.333333a42.666667 42.666667 0 1 1 0 85.333334h-341.333333z"  horiz-adv-x="1024" />
      
      <glyph glyph-name="common_arrow_right2_line_24x24" unicode="&#59114;" d="M475.818667 825.514667a51.2 51.2 0 0 0 72.405333 0l405.333333-405.333334a51.2 51.2 0 0 0 0-72.405333l-405.333333-405.333333a51.2 51.2 0 0 0-72.405333 72.448l317.909333 317.909333H106.666667a51.2 51.2 0 1 0 0 102.4h687.061333l-317.952 317.909333a51.2 51.2 0 0 0 0 72.405334z"  horiz-adv-x="1024" />
      
      <glyph glyph-name="common_filter_filled_24x24" unicode="&#59115;" d="M49.92 697.130667l251.178667-282.88v-272c0-11.605333 6.826667-22.186667 17.621333-27.221334l193.792-90.666666c20.608-9.642667 44.501333 4.949333 44.501333 27.221333v362.666667l251.221334 282.88C825.045333 716.8 810.666667 746.666667 784.341333 746.666667H73.770667c-26.325333 0-40.704-29.866667-23.893334-49.536z m641.024-252.672a42.666667 42.666667 0 0 1-42.666667-42.666667v-5.333333a42.666667 42.666667 0 0 1 42.666667-42.666667H938.666667a42.666667 42.666667 0 0 1 42.666666 42.666667v5.333333a42.666667 42.666667 0 0 1-42.666666 42.666667h-247.722667z m-42.666667-193.749334a42.666667 42.666667 0 0 0 42.666667 42.666667H938.666667a42.666667 42.666667 0 0 0 42.666666-42.666667v-5.333333a42.666667 42.666667 0 0 0-42.666666-42.666667h-247.722667a42.666667 42.666667 0 0 0-42.666667 42.666667v5.333333z m42.666667-108.458666a42.666667 42.666667 0 0 1-42.666667-42.666667v-5.333333a42.666667 42.666667 0 0 1 42.666667-42.666667H938.666667a42.666667 42.666667 0 0 1 42.666666 42.666667v5.333333a42.666667 42.666667 0 0 1-42.666666 42.666667h-247.722667z"  horiz-adv-x="1024" />
      
      <glyph glyph-name="common_emoji_line_24x24" unicode="&#59116;" d="M512 853.333333a468.010667 468.010667 0 0 1-331.861333-137.472A468.010667 468.010667 0 0 1 42.666667 384c0-129.578667 52.565333-246.997333 137.472-331.861333l30.165333 30.165333-30.165333-30.165333A468.010667 468.010667 0 0 1 512-85.333333c129.578667 0 246.997333 52.565333 331.861333 137.472A468.010667 468.010667 0 0 1 981.333333 384c0 129.578667-52.565333 246.997333-137.472 331.861333l-30.165333-30.165333 30.165333 30.165333A468.010667 468.010667 0 0 1 512 853.333333zM240.469333 655.530667A382.677333 382.677333 0 0 0 512 768a382.677333 382.677333 0 0 0 271.530667-112.469333A382.677333 382.677333 0 0 0 896 384a382.634667 382.634667 0 0 0-112.469333-271.530667A382.634667 382.634667 0 0 0 512 0a382.677333 382.677333 0 0 0-271.530667 112.469333A382.677333 382.677333 0 0 0 128 384a382.677333 382.677333 0 0 0 112.469333 271.530667zM512 213.333333a127.573333 127.573333 0 0 1 90.496 37.504A127.573333 127.573333 0 0 1 640 341.333333H384c0-35.328 14.336-67.328 37.504-90.496A127.573333 127.573333 0 0 1 512 213.333333z m-85.333333 277.333334a64 64 0 1 0-128 0 64 64 0 0 0 128 0z m234.666666-64a64 64 0 1 1 0 128 64 64 0 0 1 0-128z"  horiz-adv-x="1024" />
      
      <glyph glyph-name="bbs_filled_24x24" unicode="&#59117;" d="M730.581333 768c116.949333 0 211.754667-97.408 211.754667-217.557333 0-95.317333-59.690667-176.341333-142.762667-205.738667 112.384-41.216 160.426667-166.314667 160.426667-267.690667 0-57.770667-113.493333-74.581333-229.418667-76.8-125.226667-2.389333-253.653333 14.378667-253.653333 76.8 0 99.413333 62.848 232.533333 176.298667 270.976-78.677333 31.658667-134.4 110.378667-134.4 202.453334C518.826667 670.592 613.632 768 730.581333 768zM264.704 706.56c96.298667 0 174.378667-80.213333 174.378667-179.114667 0-84.010667-56.234667-154.496-132.181334-173.866666 108.885333-22.229333 160.128-118.869333 146.261334-224.298667-8.021333-61.013333-122.666667-59.136-195.84-60.586667-106.112-2.133333-193.322667 21.418667-193.322667 60.586667 0 95.445333 40.96 204.928 153.386667 225.706667-73.301333 21.12-127.061333 90.325333-127.061334 172.458666 0 98.944 78.08 179.114667 174.378667 179.114667z"  horiz-adv-x="1024" />
      
      <glyph glyph-name="common_face_filled_24x24" unicode="&#59118;" d="M512 853.333333c259.2 0 469.333333-210.133333 469.333333-469.333333s-210.133333-469.333333-469.333333-469.333333S42.666667 124.8 42.666667 384 252.8 853.333333 512 853.333333z m286.805333-521.472H225.194667c0-152.32 128.426667-260.736 286.805333-260.736 158.421333 0 286.805333 108.373333 286.805333 260.693334zM277.333333 603.008a78.208 78.208 0 1 1 0-156.416 78.208 78.208 0 0 1 0 156.416z m469.333334 0a78.208 78.208 0 1 1 0-156.416 78.208 78.208 0 0 1 0 156.416z"  horiz-adv-x="1024" />
      
      <glyph glyph-name="common_fold_filled_24x24" unicode="&#59119;" d="M919.893333 701.44l-181.333333-181.333333-8.064-8.106667H810.666667a64 64 0 0 0 0-128h-234.666667a64 64 0 0 0-64 64V682.666667a64 64 0 0 0 128 0v-80.170667l8.106667 8.106667 181.333333 181.333333a64 64 0 0 0 90.453333-90.538667zM384 165.461333V85.333333a64 64 0 0 1 128 0v234.666667a64 64 0 0 1-64 64H213.333333a64 64 0 0 1 0-128h80.170667l-8.106667-8.106667-181.333333-181.333333a64 64 0 0 1 90.538667-90.453333l181.333333 181.333333 8.064 8.064z"  horiz-adv-x="1024" />
      
      <glyph glyph-name="bbs_quotation_filled_24x24" unicode="&#59088;" d="M256.768 395.776c2.773333 77.610667 49.109333 158.634667 138.965333 243.114667 10.368 9.728 16.256 23.381333 16.256 37.674666v41.856a38.698667 38.698667 0 0 1-46.037333 38.186667c-120.106667-23.253333-212.48-140.330667-276.992-351.146667-0.853333-2.645333-2.048-6.656-3.626667-343.210666 0-28.501333 22.997333-51.584 51.328-51.584h270.677334c28.330667 0 51.328 23.082667 51.328 51.584v264.32c0 28.501333-22.997333 51.584-51.328 51.584H273.024a16.938667 16.938667 0 0 0-16.256 17.621333z m480 0c2.773333 77.610667 49.109333 158.634667 138.965333 243.114667 10.368 9.728 16.256 23.381333 16.256 37.674666v41.856a38.698667 38.698667 0 0 1-46.037333 38.186667c-120.106667-23.253333-212.48-140.330667-276.992-351.146667-0.853333-2.645333-2.048-6.656-3.626667-343.210666 0-28.501333 22.997333-51.584 51.328-51.584h270.677334c28.330667 0 51.328 23.082667 51.328 51.584v264.32c0 28.501333-22.997333 51.584-51.328 51.584h-134.314667a16.981333 16.981333 0 0 0-16.256 17.621333z"  horiz-adv-x="1024" />
      
      <glyph glyph-name="common_search_line_24x24" unicode="&#59089;" d="M500.053333 731.733333C318.208 731.733333 170.666667 584.106667 170.666667 401.962667c0-182.186667 147.541333-329.728 329.386666-329.728 181.888 0 329.386667 147.584 329.386667 329.728 0 182.186667-147.498667 329.813333-329.386667 329.813333zM68.266667 401.962667c0 238.634667 193.28 432.213333 431.786666 432.213333 238.506667-0.042667 431.786667-193.578667 431.786667-432.213333 0-238.634667-193.28-432.128-431.786667-432.128-238.506667 0-431.786667 193.493333-431.786666 432.128zM769.109333 133.546667a51.157333 51.157333 0 0 0 72.405334 0l101.504-101.589334c19.968-20.010667 19.968-52.48 0-72.448a51.157333 51.157333 0 0 0-72.405334 0l-101.504 101.589334a51.242667 51.242667 0 0 0 0 72.448z"  horiz-adv-x="1024" />
      
      <glyph glyph-name="common_service2_line_24x24" unicode="&#59090;" d="M511.872 721.152a270.293333 270.293333 0 0 1-201.173333-450.773333 42.666667 42.666667 0 0 0-56.576-63.232 134.101333 134.101333 0 1 0-97.877334 242.176v1.578666a355.626667 355.626667 0 1 0 711.253334 0v-1.536a134.144 134.144 0 1 0-74.581334-255.274666 403.925333 403.925333 0 0 0-15.658666-21.162667c-36.693333-46.336-83.456-84.736-138.837334-115.669333a67.072 67.072 0 0 0-59.434666-98.133334h-134.144a67.072 67.072 0 0 0 0 134.101334h65.834666c88.661333 31.445333 155.008 76.245333 199.68 132.693333 46.336 58.538667 71.808 132.693333 71.808 224.981333a270.293333 270.293333 0 0 1-270.293333 270.250667zM415.573333 337.237333a25.6 25.6 0 0 1-30.464-41.173333l15.018667 20.693333-15.018667-20.736 0.085334-0.042666 0.085333-0.085334 0.256-0.170666 0.64-0.426667a77.952 77.952 0 0 1 8.704-5.248c5.674667-3.072 13.824-6.954667 24.405333-10.794667 21.205333-7.68 52.053333-14.933333 92.586667-14.933333s71.381333 7.253333 92.586667 14.933333c10.624 3.84 18.773333 7.722667 24.448 10.794667a114.261333 114.261333 0 0 1 8.661333 5.248l0.682667 0.426667 0.213333 0.170666 0.128 0.085334 0.042667 0.042666-15.018667 20.736 15.061333-20.736a25.6 25.6 0 1 1-30.506666 41.216 127.914667 127.914667 0 0 0-21.077334-9.813333c-15.957333-5.76-40.96-11.904-75.221333-11.904-34.261333 0-59.264 6.144-75.221333 11.946667a127.658667 127.658667 0 0 0-21.077334 9.770666z m193.109334 0.298667l0.128 0.085333-0.085334-0.042666"  horiz-adv-x="1024" />
      
      <glyph glyph-name="common_save_line_24x24" unicode="&#59091;" d="M44.8 661.333333a179.2 179.2 0 0 0 179.2 179.2h576a179.2 179.2 0 0 0 179.2-179.2v-554.666666a179.2 179.2 0 0 0-179.2-179.2H224a179.2 179.2 0 0 0-179.2 179.2v554.666666z m179.2 76.8a76.8 76.8 0 0 1-76.8-76.8v-554.666666a76.8 76.8 0 0 1 76.8-76.8h576a76.8 76.8 0 0 1 76.8 76.8v554.666666a76.8 76.8 0 0 1-76.8 76.8h-23.466667V469.333333a93.866667 93.866667 0 0 0-93.866666-93.866666H341.333333A93.866667 93.866667 0 0 0 247.466667 469.333333V738.133333h-23.466667z m125.866667 0v-260.266666h324.266666V738.133333H349.866667z m277.333333-76.8a51.2 51.2 0 0 1-102.4 0V554.666667a51.2 51.2 0 1 1 102.4 0V661.333333z"  horiz-adv-x="1024" />
      
      <glyph glyph-name="common_circle_filled_24x24" unicode="&#59092;" d="M512 672a288 288 0 0 1 0-576 74.666667 74.666667 0 1 0 0-149.333333C270.506667-53.333333 74.666667 142.506667 74.666667 384S270.506667 821.333333 512 821.333333 949.333333 625.493333 949.333333 384a74.666667 74.666667 0 1 0-149.333333 0A288 288 0 0 1 512 672z"  horiz-adv-x="1024" />
      
      <glyph glyph-name="common_nonsupport_line_24x24" unicode="&#59093;" d="M512 853.333333a468.010667 468.010667 0 0 1-331.861333-137.472A468.010667 468.010667 0 0 1 42.666667 384c0-129.578667 52.565333-246.997333 137.472-331.861333l30.165333 30.165333-30.165333-30.165333A468.010667 468.010667 0 0 1 512-85.333333c129.578667 0 246.997333 52.565333 331.861333 137.472A468.010667 468.010667 0 0 1 981.333333 384c0 129.578667-52.565333 246.997333-137.472 331.861333l-30.165333-30.165333 30.165333 30.165333A468.010667 468.010667 0 0 1 512 853.333333zM240.469333 655.530667A382.677333 382.677333 0 0 0 512 768a382.677333 382.677333 0 0 0 271.530667-112.469333A382.677333 382.677333 0 0 0 896 384a382.634667 382.634667 0 0 0-112.469333-271.530667A382.634667 382.634667 0 0 0 512 0a382.677333 382.677333 0 0 0-271.530667 112.469333A382.677333 382.677333 0 0 0 128 384a382.677333 382.677333 0 0 0 112.469333 271.530667z m92.032-92.032a42.666667 42.666667 0 0 0 60.330667 0L512 444.330667l119.168 119.168a42.666667 42.666667 0 1 0 60.330667-60.330667L572.330667 384l119.168-119.168a42.666667 42.666667 0 0 0-60.330667-60.330667L512 323.669333l-119.168-119.168a42.666667 42.666667 0 0 0-60.330667 60.330667L451.669333 384 332.501333 503.168a42.666667 42.666667 0 0 0 0 60.330667z"  horiz-adv-x="1024" />
      
      <glyph glyph-name="common_mobilegame" unicode="&#59094;" d="M204.8 742.4a102.4 102.4 0 0 0 102.4 102.4h409.6a102.4 102.4 0 0 0 102.4-102.4v-716.8a102.4 102.4 0 0 0-102.4-102.4H307.2a102.4 102.4 0 0 0-102.4 102.4v256h76.8v-128a51.2 51.2 0 0 1 51.2-51.2h358.4a51.2 51.2 0 0 1 51.2 51.2V691.2a51.2 51.2 0 0 1-51.2 51.2h-358.4a51.2 51.2 0 0 1-51.2-51.2v-102.4H204.8V742.4z m256-768a25.6 25.6 0 0 0 0 51.2h153.6a25.6 25.6 0 0 0 0-51.2H460.8z m90.4704 488.6016a38.4 38.4 0 0 0 0-55.6032l-107.52-102.4a38.4 38.4 0 1 0-52.9408 55.6032l37.9904 36.1984H166.4a38.4 38.4 0 0 0 0 76.8h262.4l-37.9904 36.1984a38.4 38.4 0 1 0 52.9408 55.6032l107.52-102.4z"  horiz-adv-x="1024" />
      
      <glyph glyph-name="common_menu_line_24x24" unicode="&#59095;" d="M149.333333 661.333333a42.666667 42.666667 0 0 0 42.666667 42.666667h640a42.666667 42.666667 0 1 0 0-85.333333h-640a42.666667 42.666667 0 0 0-42.666667 42.666666zM149.333333 384a42.666667 42.666667 0 0 0 42.666667 42.666667h640a42.666667 42.666667 0 1 0 0-85.333334h-640a42.666667 42.666667 0 0 0-42.666667 42.666667zM149.333333 106.666667a42.666667 42.666667 0 0 0 42.666667 42.666666h640a42.666667 42.666667 0 1 0 0-85.333333h-640a42.666667 42.666667 0 0 0-42.666667 42.666667z"  horiz-adv-x="1024" />
      
      <glyph glyph-name="bbs_thumbsup_line_24x24" unicode="&#59096;" d="M478.890667 843.477333c39.68 19.626667 95.573333 10.368 132.608-31.744 36.266667-41.216 52.181333-108.373333 45.653333-203.349333L656.213333 597.333333l130.645334-4.650666c32.426667-1.109333 64.213333-9.173333 93.141333-23.594667l10.752-5.717333 25.344-14.336a128.426667 128.426667 0 0 0 59.178667-150.784c-3.712-11.648-6.826667-22.869333-9.386667-33.706667a33.408 33.408 0 0 1-0.810667-7.850667l-0.853333-44.8a263.552 263.552 0 0 0-17.92-90.709333l-18.346667-46.933333a31.018667 31.018667 0 0 1-1.792-6.442667l-9.642666-57.258667a300.373333 300.373333 0 0 0-23.466667-75.989333l-4.949333-10.752C869.717333-16.128 829.525333-42.666667 787.2-42.666667h-304.64c-53.76 0-115.2 8.832-155.690667 22.741334l-5.248 1.92-159.573333-20.096a67.2 67.2 0 0 0-74.88 50.986666l-1.152 5.973334A67.114667 67.114667 0 0 0 85.333333 28.458667V532.053333c0 37.12 30.08 67.2 67.157334 67.2l162.176 0.298667 4.181333 2.730667 14.208 8.618666 30.208 17.493334 22.528 13.653333 0.810667 0.426667c6.826667 12.672 10.581333 23.722667 13.482666 41.173333l2.133334 14.464c0.64 5.290667 1.28 11.093333 1.962666 17.621333l1.066667 9.514667c7.509333 61.866667 23.04 93.098667 73.642667 118.186667zM548.693333 756.48c-11.306667 12.885333-26.026667 15.36-32.682666 12.074667-17.749333-8.789333-22.954667-16.810667-26.965334-47.061334l-4.053333-35.498666c-4.565333-35.669333-10.325333-56.448-24.832-83.242667-6.570667-12.202667-13.141333-19.797333-27.477333-29.738667l-9.6-6.314666-11.861334-7.168-30.72-17.792v-489.856c23.381333-5.12 52.394667-8.96 80.341334-10.368l11.392-0.426667 10.325333-0.128h304.64c9.216 0 20.053333 7.125333 24.96 17.792l4.949333 10.752c8.064 17.493333 13.738667 35.925333 16.938667 54.869333l9.642667 57.258667c1.365333 8.192 3.626667 16.213333 6.570666 23.466667l18.090667 46.421333c7.68 19.754667 11.861333 40.704 12.245333 61.866667l0.853334 44.074666c0 8.746667 0.981333 17.450667 2.986666 25.941334 3.029333 13.098667 6.741333 26.453333 11.093334 40.192a44.8 44.8 0 0 1-20.650667 52.608l-25.344 14.378666a143.445333 143.445333 0 0 1-65.621333 18.517334l-175.914667 6.186666a41.813333 41.813333 0 0 0-39.893333 47.744c14.933333 103.850667 4.565333 166.229333-19.413334 193.450667zM296.874667 515.968l-127.914667-0.213333v-468.650667l127.914667 16.128V515.968z"  horiz-adv-x="1024" />
      
      <glyph glyph-name="common_list1_line_24x24" unicode="&#59097;" d="M64 682.666667a128 128 0 0 0 128 128h170.666667a128 128 0 0 0 128-128v-128a128 128 0 0 0-128-128h-170.666667a128 128 0 0 0-128 128V682.666667z m128 42.666666a42.666667 42.666667 0 0 1-42.666667-42.666666v-128a42.666667 42.666667 0 0 1 42.666667-42.666667h170.666667a42.666667 42.666667 0 0 1 42.666666 42.666667V682.666667a42.666667 42.666667 0 0 1-42.666666 42.666666h-170.666667z m-128-512a128 128 0 0 0 128 128h170.666667a128 128 0 0 0 128-128v-128a128 128 0 0 0-128-128h-170.666667a128 128 0 0 0-128 128v128z m128 42.666667a42.666667 42.666667 0 0 1-42.666667-42.666667v-128a42.666667 42.666667 0 0 1 42.666667-42.666666h170.666667a42.666667 42.666667 0 0 1 42.666666 42.666666v128a42.666667 42.666667 0 0 1-42.666666 42.666667h-170.666667zM554.666667 704a42.666667 42.666667 0 0 0 42.666666 42.666667h341.333334a42.666667 42.666667 0 1 0 0-85.333334h-341.333334a42.666667 42.666667 0 0 0-42.666666 42.666667z m0-469.333333a42.666667 42.666667 0 0 0 42.666666 42.666666h341.333334a42.666667 42.666667 0 1 0 0-85.333333h-341.333334a42.666667 42.666667 0 0 0-42.666666 42.666667z m42.666666 341.333333a42.666667 42.666667 0 1 1 0-85.333333h341.333334a42.666667 42.666667 0 1 1 0 85.333333h-341.333334z m-42.666666-512a42.666667 42.666667 0 0 0 42.666666 42.666667h341.333334a42.666667 42.666667 0 1 0 0-85.333334h-341.333334a42.666667 42.666667 0 0 0-42.666666 42.666667z"  horiz-adv-x="1024" />
      
      <glyph glyph-name="common_share2_line_24x24" unicode="&#59098;" d="M128 527.36a51.2 51.2 0 0 0 51.2-51.2v-386.944c0-33.152 26.581333-59.349333 58.496-59.349333H786.346667c31.914667 0 58.496 26.197333 58.496 59.349333v386.986667a51.2 51.2 0 1 0 102.4 0v-386.986667c0-88.96-71.68-161.749333-160.896-161.749333H237.653333C148.48-72.533333 76.8 0.256 76.8 89.173333v386.986667A51.2 51.2 0 0 0 128 527.36zM512 824.32a51.2 51.2 0 0 0 51.2-51.2v-531.925333a51.2 51.2 0 1 0-102.4 0V773.162667a51.2 51.2 0 0 0 51.2 51.2zM478.037333 827.648a51.2 51.2 0 0 0 67.925334 0l192-170.026667a51.2 51.2 0 1 0-67.882667-76.629333L512 720.938667l-158.037333-139.946667a51.2 51.2 0 1 0-67.882667 76.629333l192 170.026667z"  horiz-adv-x="1024" />
      
      <glyph glyph-name="common_delete_line_24x24" unicode="&#59099;" d="M362.666667 853.333333a42.666667 42.666667 0 0 1-42.666667-42.666666v-106.666667H128a42.666667 42.666667 0 0 1 0-85.333333h26.197333l78.506667-647.68A64 64 0 0 1 296.234667-85.333333h431.530666a64 64 0 0 1 63.530667 56.32l78.506667 647.68H896a42.666667 42.666667 0 1 1 0 85.333333h-192V810.666667a42.666667 42.666667 0 0 1-42.666667 42.666666h-298.666666z m256-149.333333h-213.333334V768h213.333334v-64z m-256-85.333333h421.205333L708.864 0H315.136L240.128 618.666667H362.666667z m16.64-85.589334a42.666667 42.666667 0 0 0 47.104-37.717333l42.666666-384a42.666667 42.666667 0 1 0-84.821333-9.386667l-42.666667 384a42.666667 42.666667 0 0 0 37.717334 47.104z m218.282666-37.717333a42.666667 42.666667 0 1 0 84.821334-9.386667l-42.666667-384a42.666667 42.666667 0 0 0-84.821333 9.386667l42.666666 384z"  horiz-adv-x="1024" />
      
      <glyph glyph-name="common_more_line_24x24" unicode="&#59100;" d="M992 384a95.957333 95.957333 0 0 1-95.872 96A95.914667 95.914667 0 0 1 800.256 384a95.914667 95.914667 0 0 1 95.872-96A95.957333 95.957333 0 0 1 992 384zM607.872 384A95.914667 95.914667 0 0 1 512 480 95.914667 95.914667 0 0 1 416.128 384 95.914667 95.914667 0 0 1 512 288 95.914667 95.914667 0 0 1 607.872 384zM223.744 384a95.914667 95.914667 0 0 1-95.872 96A95.914667 95.914667 0 0 1 32 384a95.914667 95.914667 0 0 1 95.872-96A95.914667 95.914667 0 0 1 223.744 384z"  horiz-adv-x="1024" />
      
      <glyph glyph-name="common_editing_line_24x24" unicode="&#59101;" d="M277.333333 746.666667a128 128 0 0 1-128-128v-469.333334a128 128 0 0 1 128-128h469.333334a128 128 0 0 1 128 128v295.338667a42.666667 42.666667 0 1 0 85.333333 0V149.333333a213.333333 213.333333 0 0 0-213.333333-213.333333h-469.333334a213.333333 213.333333 0 0 0-213.333333 213.333333v469.333334a213.333333 213.333333 0 0 0 213.333333 213.333333h298.453334a42.666667 42.666667 0 1 0 0-85.333333H277.333333zM934.912 801.024a74.666667 74.666667 0 0 0-0.682667-105.6L533.333333 298.666667l-129.877333-22.613334L426.666667 405.333333l402.645333 396.330667a74.666667 74.666667 0 0 0 105.6-0.64z"  horiz-adv-x="1024" />
      
      <glyph glyph-name="common_list2_filled_24x24" unicode="&#59102;" d="M85.333333 704A106.666667 106.666667 0 0 0 192 810.666667h170.666667A106.666667 106.666667 0 0 0 469.333333 704v-170.666667A106.666667 106.666667 0 0 0 362.666667 426.666667h-170.666667A106.666667 106.666667 0 0 0 85.333333 533.333333v170.666667zM85.333333 234.666667A106.666667 106.666667 0 0 0 192 341.333333h170.666667a106.666667 106.666667 0 0 0 106.666666-106.666666v-170.666667A106.666667 106.666667 0 0 0 362.666667-42.666667h-170.666667A106.666667 106.666667 0 0 0 85.333333 64v170.666667zM554.666667 704A106.666667 106.666667 0 0 0 661.333333 810.666667h170.666667A106.666667 106.666667 0 0 0 938.666667 704v-170.666667a106.666667 106.666667 0 0 0-106.666667-106.666666h-170.666667A106.666667 106.666667 0 0 0 554.666667 533.333333v170.666667zM554.666667 234.666667a106.666667 106.666667 0 0 0 106.666666 106.666666h170.666667a106.666667 106.666667 0 0 0 106.666667-106.666666v-170.666667a106.666667 106.666667 0 0 0-106.666667-106.666667h-170.666667a106.666667 106.666667 0 0 0-106.666666 106.666667v170.666667z"  horiz-adv-x="1024" />
      
      <glyph glyph-name="bbs_video_filled_24x24" unicode="&#59077;" d="M21.333333 674.346667a64 64 0 0 0 64 64h622.421334a64 64 0 0 0 64-64v-85.888l201.770666 79.36a21.333333 21.333333 0 0 0 29.141334-19.84v-527.957334a21.333333 21.333333 0 0 0-29.141334-19.882666l-201.770666 79.402666v-85.930666a64 64 0 0 0-64-64H85.333333a64 64 0 0 0-64 64V674.346667z m272.597334-153.557334v-273.621333a21.333333 21.333333 0 0 1 33.365333-17.621333l200.533333 136.832a21.333333 21.333333 0 0 1 0 35.242666l-200.533333 136.789334a21.333333 21.333333 0 0 1-33.365333-17.621334z"  horiz-adv-x="1024" />
      
      <glyph glyph-name="bbs_switch_filled_24x24" unicode="&#59078;" d="M913.749333 294.4c25.557333 0 46.250667-18.346667 46.250667-40.917333v-81.749334c0-22.613333-20.693333-40.917333-46.250667-40.917333H312.789333v-153.898667c0-22.613333-20.693333-40.917333-46.208-40.917333-17.493333 0-33.536 8.746667-41.386666 22.613333l-156.288 276.608c-11.434667 20.181333-2.176 44.8 20.650666 54.869334a51.2 51.2 0 0 0 20.693334 4.309333h803.498666zM757.418667 832c17.493333 0 33.536-8.746667 41.386666-22.613333l156.288-276.608c11.434667-20.181333 2.176-44.8-20.650666-54.869334a51.2 51.2 0 0 0-20.693334-4.309333H110.208c-25.514667 0-46.208 18.346667-46.208 40.874667V596.266667c0 22.613333 20.693333 40.917333 46.208 40.917333H711.253333V791.125333c0 22.570667 20.693333 40.874667 46.208 40.874667z"  horiz-adv-x="1024" />
      
      <glyph glyph-name="common_star_filled_24x24" unicode="&#59079;" d="M511.872 832a42.666667 42.666667 0 0 0 38.314667-23.68l122.154666-246.186667 272.469334-39.722666a42.666667 42.666667 0 0 0 23.722666-72.704l-198.186666-194.090667 47.061333-269.653333a42.666667 42.666667 0 0 0-62.122667-44.928L512 70.698667l-243.242667-129.706667a42.666667 42.666667 0 0 0-62.122666 45.013333l47.402666 269.568-198.485333 194.048a42.666667 42.666667 0 0 0 23.68 72.746667l273.962667 39.722667 120.490666 245.973333a42.666667 42.666667 0 0 0 38.229334 23.893333z"  horiz-adv-x="1024" />
      
      <glyph glyph-name="common_tab_disc_selected_26x26" unicode="&#59080;" d="M512 738.461538l354.461538-708.923076H157.538462l354.461538 708.923076z m0-264.192L348.711385 147.692308h326.57723L512 474.269538zM590.769231 187.076923l-78.769231 157.538462-78.769231-157.538462h157.538462z"  horiz-adv-x="1024" />
      
      <glyph glyph-name="common_news_line_24_24" unicode="&#59081;" d="M924.032 25.6a35.968 35.968 0 0 1 25.045333 61.781333l-81.536 79.232a42.666667 42.666667 0 0 0-12.928 30.634667V460.8c0 144.512-97.024 269.226667-230.528 313.472-19.029333 6.272-33.024 23.338667-33.024 43.349333V819.2C591.061333 862.72 556.8 896 512 896c-44.8 0-79.061333-33.28-79.061333-76.8v-1.578667c0-20.053333-14.037333-37.077333-33.024-43.349333C266.410667 730.026667 169.429333 605.312 169.429333 460.8v-263.552a42.666667 42.666667 0 0 0-12.970666-30.634667l-81.536-79.232a35.968 35.968 0 0 1 25.045333-61.781333h824.064z m-313.429333-85.333333c2.986667 18.474667-14.976 34.133333-35.84 34.133333h-125.525334c-20.864 0-38.826667-15.658667-35.84-34.133333 0.384-2.389333 1.109333-4.778667 2.218667-7.253334a104.021333 104.021333 0 0 1 38.272-43.946666c16.682667-10.752 36.693333-17.066667 58.112-17.066667 21.418667 0 41.386667 6.314667 58.069333 17.066667l0.341334 0.213333a103.936 103.936 0 0 1 37.973333 43.733333 28.330667 28.330667 0 0 1 2.218667 7.253334z m158.634666 256.981333V460.8c0 105.429333-71.253333 199.082667-171.989333 232.448-37.76 12.501333-71.68 42.922667-85.248 84.48-13.568-41.557333-47.488-71.978667-85.248-84.48-100.778667-33.365333-171.989333-127.018667-171.989333-232.448v-263.552a128 128 0 0 0-33.493334-86.314667h581.461334a128 128 0 0 0-33.493334 86.314667z"  horiz-adv-x="1024" />
      
      <glyph glyph-name="common_star_line_24x24" unicode="&#59082;" d="M431.829333 779.946667c30.464 69.376 129.877333 69.376 160.341334 0l87.552-199.253334c0.085333-0.256 0.597333-0.896 1.749333-1.024l220.373333-20.053333c75.178667-6.826667 108.544-100.522667 49.408-151.466667l-166.314666-143.189333a1.109333 1.109333 0 0 1-0.341334-0.512 0.426667 0.426667 0 0 1 0-0.128v-0.085333l48.64-211.669334c17.493333-76.202667-65.450667-131.114667-129.536-93.866666l-190.293333 110.848a2.730667 2.730667 0 0 1-1.408 0.341333 2.730667 2.730667 0 0 1-1.365333-0.384l-190.293334-110.762667c-64.128-37.333333-147.072 17.621333-129.578666 93.781334l48.64 211.712a0.341333 0.341333 0 0 1 0 0.213333 1.109333 1.109333 0 0 1-0.384 0.512l-166.272 143.189333c-59.136 50.944-25.770667 144.64 49.408 151.466667l220.373333 20.053333c1.152 0.128 1.664 0.768 1.749333 1.024l87.552 199.253334z m78.464-33.706667l-0.341333-0.597333-87.509333-199.253334a87.338667 87.338667 0 0 0-72.192-51.712l-220.373334-20.053333a4.010667 4.010667 0 0 1-1.152-0.213333 0.725333 0.725333 0 0 1-0.213333-0.128 1.621333 1.621333 0 0 1-0.426667-0.682667 1.706667 1.706667 0 0 1-0.085333-0.341333 4.096 4.096 0 0 1 0.426667-0.426667l166.314666-143.232c24.149333-20.778667 35.029333-53.205333 27.861334-84.48l-48.64-211.712a3.242667 3.242667 0 0 1-0.085334-0.298667 2.645333 2.645333 0 0 1 0.554667-0.512c0.597333-0.426667 1.152-0.554667 1.493333-0.597333h0.426667a3.669333 3.669333 0 0 1 1.024 0.469333l190.293333 110.805334a88.192 88.192 0 0 0 88.661334 0l190.293333-110.805334c0.554667-0.298667 0.853333-0.426667 1.024-0.426666h0.426667a3.072 3.072 0 0 1 1.493333 0.554666 2.645333 2.645333 0 0 1 0.554667 0.512l-0.042667 0.298667-48.64 211.712a86.016 86.016 0 0 0 27.818667 84.48l166.272 143.232a4.224 4.224 0 0 1 0.426666 0.426667l-0.042666 0.341333a1.664 1.664 0 0 1-0.426667 0.682667l-0.085333 0.042666-0.128 0.085334a3.968 3.968 0 0 1-1.152 0.256l-220.373334 20.053333a87.338667 87.338667 0 0 0-72.149333 51.626667l-87.552 199.296-0.341333 0.597333-0.085334 0.085333A3.285333 3.285333 0 0 1 512 746.666667a3.285333 3.285333 0 0 1-1.621333-0.341334 0.341333 0.341333 0 0 1-0.085334-0.085333zM127.914667 473.386667z m0 0z"  horiz-adv-x="1024" />
      
      <glyph glyph-name="a-common_tab_bbs_unselected_26x26" unicode="&#59083;" d="M512 147.692308a236.307692 236.307692 0 1 1 0 472.615384 236.307692 236.307692 0 0 1 0-472.615384z m0-118.153846a354.461538 354.461538 0 1 0 0 708.923076 354.461538 354.461538 0 0 0 0-708.923076z"  horiz-adv-x="1024" />
      
      <glyph glyph-name="common_save2_line_24x24" unicode="&#59084;" d="M512 840.533333a51.2 51.2 0 0 0 51.2-51.2v-434.432l106.88 94.634667a51.2 51.2 0 1 0 67.84-76.672l-192-170.026667a51.2 51.2 0 0 0-67.84 0l-192 170.026667a51.2 51.2 0 0 0 67.84 76.672L460.8 354.986667V789.248A51.2 51.2 0 0 0 512 840.576zM128 527.36a51.2 51.2 0 0 0 51.2-51.2v-386.944c0-33.152 26.581333-59.349333 58.496-59.349333H786.346667c31.914667 0 58.496 26.197333 58.496 59.349333v386.986667a51.2 51.2 0 1 0 102.4 0v-386.986667c0-88.96-71.68-161.749333-160.896-161.749333H237.653333C148.48-72.533333 76.8 0.256 76.8 89.216v386.986667A51.2 51.2 0 0 0 128 527.36z"  horiz-adv-x="1024" />
      
      <glyph glyph-name="common_game2_line_24x24" unicode="&#59085;" d="M789.888 748.245333c-59.050667 33.92-124.117333 42.026667-188.16 11.264l-9.045333-4.266666-10.453334-4.650667-33.92-14.72-0.384-0.170667c-25.216-11.605333-44.373333-11.434667-65.066666-2.218666l-0.341334 0.170666-53.034666 22.442667c-4.181333 1.834667-7.722667 3.413333-11.52 5.205333l-0.341334 0.128c-57.472 26.368-115.114667 20.48-168.704-6.4-46.08-22.784-81.749333-57.045333-113.92-101.034666-39.253333-53.205333-68.266667-113.536-91.52-183.466667-24.32-72.661333-38.869333-144.853333-42.624-217.429333v-0.384l-0.853333-25.984 0.042667-10.24v-0.426667C1.194667 166.4 6.4 127.616 24.149333 87.04c23.893333-54.698667 69.077333-96.042667 136.448-97.706667h0.128c17.792-0.426667 35.498667 1.450667 52.906667 4.906667 45.354667 9.045333 81.792 30.421333 117.546667 61.312l0.384 0.298667 14.933333 13.525333 42.24 40.106667c12.714667 11.946667 20.821333 18.986667 30.08 26.368l0.085333 0.085333c35.84 28.672 74.581333 37.76 122.112 27.733333 19.029333-4.053333 39.765333-13.738667 69.162667-34.986666l100.565333-78.506667 0.256-0.213333c28.288-21.76 61.781333-42.709333 101.973334-52.906667 39.168-9.898667 77.994667-7.424 112.128 9.728 34.133333 17.109333 59.392 46.762667 75.306666 83.84l0.256 0.64 0.256 0.64 2.474667 5.888c15.104 34.730667 18.773333 71.168 20.053333 102.485333 2.517333 61.354667-3.84 123.008-18.133333 185.856v0.042667c-20.992 91.861333-51.797333 171.904-97.493333 243.157333-29.354667 46.08-62.378667 83.413333-104.96 111.018667l-0.469334 0.298667-12.032 7.338666-0.469333 0.298667z m-151.296-65.706666c34.261333 16.512 69.333333 14.250667 108.288-8.021334l10.026667-6.101333c29.226667-19.072 54.144-45.994667 78.933333-85.034667l0.128-0.128c39.210667-61.141333 66.816-131.498667 86.186667-216.064 12.8-56.32 18.218667-110.464 16.042666-163.498666-1.152-28.245333-4.352-51.882667-13.056-71.893334-1.109333-2.56-2.304-5.333333-3.413333-8.106666-9.429333-21.76-22.058667-34.261333-34.901333-40.704-12.928-6.485333-30.250667-8.96-52.864-3.242667-24.192 6.144-46.933333 19.370667-70.826667 37.717333l-0.128 0.085334-101.504 79.232-0.597333 0.426666c-34.816 25.301333-66.858667 42.368-102.229334 49.92-71.466667 15.061333-136.448 0.725333-193.066666-44.586666-11.562667-9.216-21.461333-17.92-35.370667-30.933334l-41.728-39.68-13.397333-12.117333c-28.16-24.192-51.456-36.565333-78.165334-41.898667a159.146667 159.146667 0 0 0-34.346666-3.328c-26.453333 0.682667-46.250667 14.592-60.245334 46.592v0.042667c-11.434667 26.069333-15.914667 52.266667-16.981333 96.426667v7.936l0.725333 23.552c3.328 63.872 16.213333 128.298667 38.314667 194.389333v0.042667c21.205333 63.658667 46.592 115.498667 79.274667 159.872l0.085333 0.128c26.794667 36.608 52.736 60.032 83.072 75.008l0.256 0.128c34.645333 17.450667 64.896 18.944 94.805333 5.248 4.522667-2.133333 8.746667-4.010667 13.653334-6.144l53.034666-22.485334c44.885333-19.797333 89.429333-17.962667 134.570667 2.645334l33.024 14.378666c4.522667 1.962667 8.448 3.669333 12.074667 5.333334l9.984 4.693333 0.341333 0.170667z m84.608-140.16a41.088 41.088 0 1 0-82.133333 0 41.088 41.088 0 0 0 82.133333 0z m0-140.8a41.088 41.088 0 1 0-82.133333 0 41.088 41.088 0 0 0 82.133333 0z m-70.4 70.4a41.088 41.088 0 1 0-82.133333 0 41.088 41.088 0 0 0 82.133333 0z m140.8 0a41.045333 41.045333 0 1 0-82.133333 0 41.045333 41.045333 0 0 0 82.133333 0zM373.845333 530.645333a32 32 0 1 1-64 0v-38.4h-38.4a32 32 0 1 1 0-64h38.4v-38.4a32 32 0 1 1 64 0v38.4h38.4a32 32 0 1 1 0 64h-38.4v38.4z"  horiz-adv-x="1024" />
      
      <glyph glyph-name="common_eyes_line_24x24" unicode="&#59086;" d="M96.682667 383.914667c8.405333-27.477333 35.413333-102.613333 95.189333-172.373334 63.018667-73.514667 162.730667-141.653333 320.128-141.653333s257.066667 68.266667 320.128 141.824a505.002667 505.002667 0 0 1 95.232 172.373333 496.853333 496.853333 0 0 1-95.018667 172.245334C769.237333 629.845333 669.44 698.026667 512 698.026667c-157.397333 0-257.066667-68.224-320.128-141.824a505.173333 505.173333 0 0 1-95.189333-172.245334z m30.378666 227.754666C203.52 701.013333 325.717333 783.36 512 783.36c186.24 0 308.565333-82.218667 385.109333-171.434667 75.434667-87.893333 106.197333-182.058667 113.92-210.005333l0.128-0.554667 0.128-0.554666c2.730667-10.965333 2.730667-22.784 0-33.706667l-0.170666-0.853333-0.256-0.810667c-7.850667-27.093333-38.570667-121.216-113.92-209.237333-76.458667-89.258667-198.656-171.648-384.938667-171.648-186.24 0-308.437333 82.218667-384.896 171.434666C51.712 243.925333 20.992 338.090667 13.098667 365.568l-0.213334 0.768-0.170666 0.768a71.04 71.04 0 0 0 0 33.706667l0.170666 0.853333 0.256 0.768c7.850667 27.136 38.570667 121.258667 113.92 209.237333zM512.512 520.32c-74.325333 0-135.466667-61.141333-135.466667-137.685333 0-76.544 61.184-137.685333 135.466667-137.685334 74.325333 0 135.466667 61.141333 135.466667 137.685334 0 76.544-61.141333 137.685333-135.466667 137.685333z m-220.8-137.685333c0 122.666667 98.346667 223.018667 220.8 223.018666 122.453333 0 220.8-100.352 220.8-223.018666 0-122.666667-98.346667-223.018667-220.8-223.018667-122.453333 0-220.8 100.352-220.8 223.018667z"  horiz-adv-x="1024" />
      
      <glyph glyph-name="common_arrow_down_filled_24x24" unicode="&#59087;" d="M85.333333 597.333333h853.333334L512 85.333333 85.333333 597.333333z"  horiz-adv-x="1024" />
      
      <glyph glyph-name="common_filter2_filled_24x24" unicode="&#59071;" d="M493.098667 759.893333l245.973333-246.826666a27.434667 27.434667 0 0 0-19.328-46.805334h-109.312a27.392 27.392 0 0 1-27.306667-27.434666v-411.392a27.392 27.392 0 0 0-27.349333-27.434667h-82.005333a27.392 27.392 0 0 0-27.306667 27.434667V740.522667a27.306667 27.306667 0 0 0 46.634667 19.370666zM348.032 768c15.104 0 27.306667-12.288 27.306667-27.434667v-713.088a27.306667 27.306667 0 0 0-46.634667-19.370666L82.773333 254.933333a27.434667 27.434667 0 0 0 19.328 46.805334h109.312c15.104 0 27.306667 12.288 27.306667 27.434666V740.565333c0 15.146667 12.288 27.434667 27.349333 27.434667h82.005334zM908.373333 137.173333c22.613333 0 41.002667-18.389333 41.002667-41.130666 0-22.698667-18.346667-41.130667-40.96-41.130667h-218.709333a41.088 41.088 0 0 0-40.96 41.130667c0 22.741333 18.346667 41.130667 40.96 41.130666h218.666666z m0 137.130667c22.613333 0 41.002667-18.389333 41.002667-41.130667 0-22.698667-18.346667-41.130667-40.96-41.130666h-218.709333a41.088 41.088 0 0 0-40.96 41.130666c0 22.741333 18.346667 41.130667 40.96 41.130667h218.666666z m0 137.130667c22.613333 0 41.002667-18.389333 41.002667-41.130667 0-22.698667-18.346667-41.130667-40.96-41.130667h-218.709333a41.088 41.088 0 0 0-40.96 41.130667c0 22.741333 18.346667 41.130667 40.96 41.130667h218.666666z"  horiz-adv-x="1024" />
      
      <glyph glyph-name="game_origin_platform_filled_24x24" unicode="&#59072;" d="M913.975893 383.628945V383.799545c0 1.705998-0.29855 3.497297-0.29855 5.331245-2.985497 212.780661-181.603539 384.532058-401.805293 384.532059-16.292286 0-32.328671-1.236849-48.023857-3.070798 4.137046 53.312453 46.829658 110.676652 46.829658 110.676652 4.691496 9.297692-5.970995 18.040934-15.226036 12.709689C422.34978 852.309379 109.725557 722.952044 109.725557 383.799545v-0.12795c0-215.382309 180.06814-389.948603 402.146493-389.948603 16.249636 0 32.200721 1.236849 47.981207 3.028147-4.222346-53.312453-46.829658-110.506052-46.829658-110.506052-4.819446-9.255042 5.970995-17.998284 15.226037-12.667038 73.059385 41.583713 385.726257 166.889302 385.726257 510.008246z m-251.336227 0.0853c0-80.736378-67.55754-146.24672-150.767616-146.24672-83.295376 0-150.810266 65.510342-150.810266 146.24672 0 80.736378 67.55754 146.20407 150.810266 146.20407s150.767616-65.510342 150.767616-146.20407z"  horiz-adv-x="1024" />
      
      <glyph glyph-name="common_toast_success_filled_24x24" unicode="&#59073;" d="M512 853.333333a468.010667 468.010667 0 0 1-331.861333-137.472A468.010667 468.010667 0 0 1 42.666667 384c0-129.578667 52.565333-246.997333 137.472-331.861333A468.010667 468.010667 0 0 1 512-85.333333c129.578667 0 246.997333 52.565333 331.861333 137.472A468.010667 468.010667 0 0 1 981.333333 384c0 129.578667-52.565333 246.997333-137.472 331.861333A468.010667 468.010667 0 0 1 512 853.333333z m243.498667-350.165333l-277.333334-277.333333a42.666667 42.666667 0 0 0-60.330666 0l-128 128a42.666667 42.666667 0 1 0 60.330666 60.330666l97.834667-97.834666 247.168 247.168a42.666667 42.666667 0 1 0 60.330667-60.330667z"  horiz-adv-x="1024" />
      
      <glyph glyph-name="game_calendar_filled_24x24" unicode="&#59074;" d="M277.333333 810.666667a21.333333 21.333333 0 0 0 21.333334 21.333333h64A21.333333 21.333333 0 0 0 384 810.666667v-42.666667h268.8V810.666667a21.333333 21.333333 0 0 0 21.333333 21.333333h64a21.333333 21.333333 0 0 0 21.333334-21.333333v-42.666667H938.666667a42.666667 42.666667 0 0 0 42.666666-42.666667v-725.333333a42.666667 42.666667 0 0 0-42.666666-42.666667H85.333333a42.666667 42.666667 0 0 0-42.666666 42.666667V725.333333a42.666667 42.666667 0 0 0 42.666666 42.666667h192V810.666667z m375.466667-170.666667H384v-42.666667a21.333333 21.333333 0 0 0-21.333333-21.333333H298.666667a21.333333 21.333333 0 0 0-21.333334 21.333333V640h-128a21.333333 21.333333 0 0 1-21.333333-21.333333v-85.333334a21.333333 21.333333 0 0 1 21.333333-21.333333h725.333334a21.333333 21.333333 0 0 1 21.333333 21.333333v85.333334a21.333333 21.333333 0 0 1-21.333333 21.333333h-115.2v-42.666667a21.333333 21.333333 0 0 0-21.333334-21.333333h-64a21.333333 21.333333 0 0 0-21.333333 21.333333V640zM256 149.333333v-42.666666a21.333333 21.333333 0 0 1 21.333333-21.333334h128a21.333333 21.333333 0 0 1 21.333334 21.333334v42.666666a21.333333 21.333333 0 0 1-21.333334 21.333334h-128a21.333333 21.333333 0 0 1-21.333333-21.333334z m341.333333 0v-42.666666a21.333333 21.333333 0 0 1 21.333334-21.333334h128a21.333333 21.333333 0 0 1 21.333333 21.333334v42.666666a21.333333 21.333333 0 0 1-21.333333 21.333334h-128a21.333333 21.333333 0 0 1-21.333334-21.333334z"  horiz-adv-x="1024" />
      
      <glyph glyph-name="common_correct_filled_24x24" unicode="&#59075;" d="M85.333333 384l106.666667 106.666667 213.333333-213.333334 426.666667 426.666667L938.666667 597.333333 405.333333 64 85.333333 384zM824.448 711.552a10.666667 10.666667 0 0 0 15.104 0l106.666667-106.666667a10.666667 10.666667 0 0 0 0-15.104l-533.333334-533.333333a10.666667 10.666667 0 0 0-15.104 0l-320 320a10.666667 10.666667 0 0 0 0 15.104l106.666667 106.666667a10.666667 10.666667 0 0 0 15.104 0L405.333333 292.437333l419.114667 419.114667z m7.552-22.613333l-419.114667-419.157334a10.666667 10.666667 0 0 0-15.104 0L192 475.562667 100.437333 384 405.333333 79.104 923.562667 597.333333 832 688.896z"  horiz-adv-x="1024" />
      
      </font>
</defs>
</svg>
